&title=サドマミホリック
&artist=ビートまりお(COOL&CREATE)
&first=0
&des=Exenmeter
&lv_5=14+
&inote_5=(200){1},
{4}5<1[2:1],4,3,3,
{4}2>6[2:1],1,8,8,
{4}7>3[2:1],5,6,7,
{4}1>5[2:1],6,7,8,
{16}4,5,4,5,4,5,4,5,4,5,4,5,4,5,4,5,
{16}3,6,3,6,3,6,3,6,3,6,3,6,3,6,3,6,
{16}2,7,2,7,2,7,2,7,1,8,1,8,1,8,1,8,
{16}1b-5[8:1],,7b/2b,,1b,,,,4<6[8:1]*>2[8:1],,,4b,4bw8[8:1],,,,
{16}4b,,,,5/3,,5/3,,1-5[8:1],,2/7,,1,,,,
{16}2/8,,1,7,1,,3/5,,1v4[8:1]/7v4[8:1],,4,,1b/7b,,,,
{16}2/8,,6,5,6,,1/7,,8-4[8:1],,2/7,,8,,,,
{16}1/2,,5,6,5,,3/8,,1b/5b,,3b/7b,,1b/5b,,3b/7b,,
{16}4/6,,2,8,1,,3/5,,7-3[8:1],,6,5,7,,,,
{16}8/4,,2,1,3,,1/7,,4v1[8:1]/6v1[8:1],,1,,4b/6b,,,,
{16}5/7,,2,1,3,,5/6,,2/3,,7,8,7,8,7,,
{16}4/5,,1,8,1,8,1,,,,{32}1b,2,3,4,1b,2,3,4,,,,,
{16}1/7,,3,4,2,,5/6,,{32}1,2,3,4,{16},,5/7>4[2:1],,,,
{16}7h[2:1],,,,,,,,,,,,4-8[8:1]/7-5[8:1],,6/3,,
{4}7/4,{16}3,6,3,,{4}1-5[8:1]/7-3[8:1],1/7,
{16}4-8[8:1],,6,,4/2-6[8:1],,3,,2/6,,,,7b,8b,1b,,
{16}8/5,,3,4,2,,1/8,,{32}7,6,5,4,{16},,1>6[2:1]/3,,,,
{16}1h[2:1],,,,,,,,,,,,7/4,,6/3,,
{16}2,1,2,,7,8,7,,{32}6/1b,2,3,4,,,,,6/1b,2,3,4,,,,,
{32}1b/8b,2/7,3/6,4/5,,,,,{16}3-7[8:1],5,1,7,3b,,,,2b/8b,,4b/6b,,
{16}5/3,,8,1,5,,6/4,,{32}8,7,6,5,,,,,{16}3>8[2:1]/4,,,,
{16}3/5,,,,6,,,,7-4[8:1],,,8,7,,,,
{16}5/2,,1/4,,7,8,6,,5v8[8:1]/1v4[8:1],,,,1/5,,,,
{16}7-3[8:1],,2,,7/1-5[8:1],,8,,1/6,,,,6b,7b,8b,,
{16}1/2,,4/5,,6,5,7,,{32}1,2,3,4,,,,,{16}5/7>3[2:1],,,,
{16}7/6,,,,5,,,,4-8[8:1],,,3,4-6[8:1]*-7[8:1],,,,
{4}4b-2[8:1]*-1[8:1],4b-8[8:1],4b/8bw4[8:1],,
{1}1b/7b,
{16}3>7[8:29],,,,3,,4,,5,,3,,4,,5,,
{16}6,,4,5,4,,6,,3-5[8:1],,3,,3b,,,,
{16}7,,6,,5,,4,,3,,2,,3,,4,,
{16}5,,3,4,3,,6,,5-3[8:1],,5,,5b,,,,
{16}2>5[16:27],,,,2,,1,,8,,2,,1,,8,,
{16}7,,1,8,1,,7,,2-5[8:1],,2,,2b,,,,
{16}6b/3h[1:0],,,,7b,,,,8h[1:0]/2b,,,,1b,,,,
{16}2b,2b,2b,,4b/8b,,6b,6b,6b-2[8:1],,,,6b,,,,
{4}8-4[8:1],8/2-6[8:1],2/7-4[8:1],7/1-5[8:1],
{4}1/8-4[8:1],8/2-6[8:1],2/7,4b/8b,
{4}1-5[8:1],1/6-2[8:1],6/4-8[8:1],4/7-3[8:1],
{4}7/1-5[8:1],1/8-4[8:1],8/2,3/7,
{4}6-2[8:1],6/4-8[8:1],4/7-3[8:1],7/1-5[8:1],
{4}1/6-2[8:1],6/4-8[8:1],4/7,2b/6b,
{4}3-7[8:1],3/5-1[8:1],5/4-8[8:1],4/7-3[8:1],
{4}7/1-5[8:1],1b/8b-4[8:1],2b/8b,1b/5b,
{16}7/8,,3,4,2,,1-5[8:1],,6-2[8:1],,1,,6,,,,
{16}1/3,,4,5,4,,3/7,,1-5[8:1]*s5[8:1],,6/4,,1b,,,,
{16}2/8,,5,4,6,,3v8[8:1],,7v4[8:1],,3,,7,,,,
{16}2/5,,7,8,6,,2/4,,3b,,4b,,5b,,5b,,
{16}6/7,,3,4,1,,3-7[8:1],,5-1[8:1],,3,,5,,,,
{16}2/8,,6,5
,1,,2/4,,3-7[8:1]*v8[8:1],,1/5,,3b,,,,
{16}4,5,3,,2/8,,2/8,,6,5,7,,1/8,,1/8,,
{16}2,3,4,,7/8,,7/8,,{32}2b,3,4,5,6,7,8,1,2b,3,4,5,6,7,8,1,
{16}2b,,,,8-6[8:1],,{32}3,4,5,,{16}8-2[8:1],,{32}3,4,5,,{16}8,,{32}3,4,5,,
{32}8b-2[4:1]*-3[4:1],7,6,,{8},,,,,7v2[8:1]/4v1[8:1],5/6,
{16}4/7,,,,5,6,5,,7-2[8:1]/4-1[8:1],,,,4/7,,,,
{16}3-7[8:1],,5,5,3>8[8:1],,5,,3,,,,3b,4b,5b,,
{16}7/3,,1,8,2-4[8:1],,{32}7,6,5,,{16}2-8[8:1],,{32}7,6,5,,{16}2,,{32}7,6,5,,
{32}2b-8[4:1]*-7[4:1],3,4,,{8},,,,,1/5,2/4,
{16}3,3,5,,4,4,6,,3-1[8:1],5,5,,3-7[8:1],,6,,
{16}3>7[4:1],,,,,,,,5h[8:1],,8,,6h[8:1],,1,,
{16}2/8,,6,5,7-1[8:1],,{32}2,3,4,,{16}7-5[8:1],,{32}2,3,4,,{16}7,,{32}2,3,4,,
{32}7b-5[4:1]*-3[4:1],8,1,,{8},,,,,5v8[8:1]/3v8[8:1],1/7,
{16}3/5,,,,6,5,7,,8v5[8:1]/4v1[8:1],,,,4/8,,,,
{16}8<5[8:1],,4,4,8>3[8:1],,4,,8,,,,8b,7b,6b,,
{16}2/5,,3,4,3-1[8:1],,{32}8,7,6,,{16}3-5[8:1],,{32}8,7,6,,{16}3,,{32}8,7,6,,
{32}3b-5[4:1]*-7[4:1],2,1,,{8},,,,,1-6[8:1]/5-2[8:1],,
{4}1b/5b,8-3[8:1]/4-7[8:1],4b/8b,1s5[8:1]/8z4[8:1],
{1}1b>8[2:1]/8b<1[2:1],
{16}1/7,,3,4,2,,7/8,,1-5[8:1],,,,1/8-4[8:1],,7,,
{16}8/2-7[8:1],,3,,2/5-1[8:1],,6,,5>1[8:1]/4,,,,5,,,,
{16}3/8,,6,5,7,,1/2,,8-4[8:1],,,,8,,2,,
{16}1-3[8:1],,1-7[8:1],,1-5[8:1],,,,,,,,1b,,,,
{16}5/3,,6,5,7,,3/4,,8-5[8:1],,,,8/3-7[8:1],,2,,
{16}3/6-2[8:1],,5,,6/4-8[8:1],,3,,4/7-3[8:1],,,,7/1,,,,
{8}8-3[8:1]/4-7[8:1],,4/8,,1-6[8:1]/5-2[8:1],,1/5,,
{8}7v4[8:1]/3v8[8:1],2/6,7V13[8:1]/3V57[8:1],,3/7,,4b/8b,,
{16}3/5,,8,1,7,,5/6,,8-4[8:1],,,,8/2-6[8:1],,3,,
{16}2/7-3[8:1],,8,,7/1-5[8:1],,2,,1<5[8:1],,,,1,,,,
{16}7/4,,3,5,3,,2/4,,1-5[8:1],,,,1,,7,,
{16}8-6[8:1],,8-2[8:1],,8-4[8:1],,,,,,,,8b,,,,
{16}1/7,,4,5,3,,2/6,,7-3[8:1],,,,7/1-5[8:1],,2,,
{16}1/8-4[8:1],,7,,8/2-6[8:1],,3,,2/5-8[8:1],,,,5/3,,,,
{8}1V75[8:1]/5V31[8:1],,1/5,,8V24[8:1]/4V68[8:1],,4/8,,
{16}3/7,,1/5,,2v4[8:1]/6v8[8:1],,3/7,,2b/6b,,,,,,,,
{8}8-4[8:1],8,3-7[8:1],3,5-1[8:1],5,2-6[8:1],2,
{8}7-4[8:1],7,1-5[8:1],1,8-4[8:1],8,1b,,
{8}3-8[8:1],3,5-1[8:1],5,4-8[8:1],4,7-3[8:1],7,
{8}1-5[8:1],1,6-2[8:1],6,4-8[8:1],4,5,5,
{8}7-4[8:1],7,1-5[8:1],1,8-4[8:1],8,3-8[8:1],3,
{8}5-1[8:1],5,2-6[8:1],2,8-4[8:1],8,1b,,
{8}2-6[8:1],2,8-4[8:1],8,3-8[8:1],3,5-1[8:1],5,
{16}5<7[8:1]*>3[8:1],,,,,,,,,,{32}1b,2,3,4,1b,2,3,4,,,,,
{16}7/8,,2,1,2>5[8:1],,8,,{32}2/6,7,8,1<6[400#4:1],,,,,4,3,2,,,,,,
{16}3/7,,1,8,2,,7/3,,6v1[8:1]/4v1[8:1],,2/8,,4b/6b,,,,
{16}2/5,,7,8,7<4[8:1],,2,,{32}7/3,2,1,8>3[400#4:1],,,,,5,6,7,,,,,,
{16}4/1,,6,5,7,,1/2,,8-5[8:1]/3-6[8:1],,7/4,,8b/3b,,,,
{16}2/8,,4,5,3>8[8:1],,6,,{32}3/7,6,5,4-7[400#4:1],,,,,1,2,3,,,,,,
{16}4/7,,1,5,3,,2/6,,7v5[8:1]/3v1[8:1],,2/6,,7b/3b,,,,
{16}2/8,,3,5,1>4[8:1],,7,,{32}1/5,6,7,8-5[400#4:1],,,,,3,2,1,,,,,,
{16}2/6,,3,7,1,,2/8,,,,3/7,,2/6,,5/1,,
{1}4bpp7[2:3]/8bpp3[2:3],
{1},
{1},
{1},
E
