&title=ENGINEDESTROYER
&artist=Tonitribu5
&first=-0.5
&des=Master Lim, the "Real" Destroyer
&lv_6=狂
&lv_7=狂
&inote_6=(204){16},,,,,,,
(204){16},,,,,1x,8x,1x,8x,1>5[1:1],,,,,,,,,,,,,,,,5<1[1:1],,,,,,,,,,,,,,,,1-3-5[1:1],,,,,,,,,,,,,,,,5-7-1[1:1],,,,,,,,,,,,,,,,1>5[1:1],,,,8,,,,7,,,,6,,,,5<1[1:1],,,,4,,,,3,,,,2,,,,1q4[2:1]*p6[2:1],,,,,,,,,,,,,,,,
(204){16}4b/5b,,,,3b/6b,,,,2b/7b,,,,1xb,8xb,1xb,8xb,
(204){8}1,8,1,7,1,6,1,5,1,5,1,6,1,7,1,8,
(204){8}8,1,8,2,8,3,8,4,8,4,8,3,8,2,8,1,
(204){8}1-3[4:1],,8,8-6[4:1],,,,,4p1[2:1],5q8[2:1],,,,,,,
(204){8}4-2[4:1],,5,5-7[4:1],,,,,1q4[2:1],8p5[2:1],,,,,,,
(204){8}4xh[8:2],5,3xh[8:2],6,2xh[8:2],7,1xh[8:2],8,
(204){8}5xh[8:2],4,6xh[8:2],3,7xh[8:2],2,8xh[8:2],1,
(204){8}4/5,4/5,3/6,3/6,
(204){16}2,7,2,7,1,8,1q4[8:5],8p5[14:8],,,,,,,,,,,,,,,,,
(204){4}4/5,3/6,2/7,1/8,
(204){16}5x,6,5,,5x,6,5,,4x,7,4,,4x,7,4,,
(204){16}3x,4,3,,3x,4,3,,2x,5,2,,2x,5,2,,
(204){16}4x,5,4,,3x,6,3,,1,,8,,1,,Ch[8:1],,
(204){16}8x,7,8,,8x,7,8,,1x,6,1,,1x,6,1,,
(204){16}2x,1,2,,2x,1,2,,3x,8,3,,3x,8,3,,
(204){16}1x,8,1,,1x,8,1,,2x,7,2,,2x,7,2,,
(204){16}4,5,3,6,2,7,1,8,1,8,2,7,3,6,4,5,
(204){16}4x,5,4,,4x,6,4,,4x,7,4,,4x,8,4,,
(204){16}4x,5,4,,4x,6,4,,4x,7,4,,4x,8,4,,
(204){16}5x,4,5,,5x,3,5,,5x,2,5,,5x,1,5,,
(204){16}5x,4,5,,5x,3,5,,5-2[7:1],2-7[7:1],,,,,,,
(204){16}1x,8,1,,1x,7,1,,1x,6,1,,1x,5,1,,
(204){16}1x,8,1,,1x,7,1,,1x,6,1,,1x,5,1,,
(204){16}8x,1,8,,8x,2,8,,8x,3,8,,8x,4,8,,
(204){8}E8/B8/B7,B1/E2/B2,B6/E6/B5,B4/B3/E4,A1x/A2x/A3x/A4x/A5x/A6x/A7x/A8x/E1x/E2x/E3x/E4x/E5x/E6x/E7x/E8x/B1x/B2x/B3x/B4x/B5x/B6x/B7x/B8x/D1x/D2x/D3x/D4x/D5x/D6x/D7x/D8x/Cfx,,,,
(204){16}5x,6,5,,5x,6,5,,4x,7,4,,4x,7,4,,
(204){16}3x,4,3,,3x,4,3,,2x,5,2,,2x,5,2,,
(204){16}5x,4,5,,5x,3,5,,5x,2,5,,5x,1,5,,
(204){16}5x,4,5,,5x,3,5,,5-2[7:1],2-7[7:1],,,,,,,
(204){16}1x,8,1,,1x,7,1,,1x,6,1,,1x,5,1,,
(204){16}1x,8,1,,1x,7,1,,1x,6,1,,1x,5,1,,
(204){16}8x,1,8,,8x,2,8,,8x,3,8,,8x,4,8,,
(204){16}4,5,3,6,2,7,1,8,1,8,2,7,3,6,4,5,
(204){16}4x,5,4,,4x,6,4,,4x,7,4,,4x,8,4,,
(204){16}4x,5,4,,4x,6,4,,4x,7,4,,4x,8,4,,
(204){16}5x,4,5,,5x,3,5,,5x,2,5,,5x,1,5,,
(204){16}5x,4,5,,5x,3,5,,5-2[7:1],2-7[7:1],,,,,,,
(204){16}8x,7,8,,8x,7,8,,1x,6,1,,1x,6,1,,
(204){16}2x,1,2,,2x,1,2,,3x,8,3,,3x,8,3,,
(204){16}8/7,,7/6,,6/5,,5/4,,4/3,,
(204){16}2,1,2,1,8,1-5[3:1],8-4[3:1],,,,,,,,,,,,4/5,,3/6,,
(204){16}1>5[1:1],,,,,,,,,,,,,,,,5<1[1:1],,,,,,,,,,,,,,,,1-3-5[1:1],,,,,,,,,,,,,,,,5-7-1[2:1],,,,,,,,,,,,,,,,
(204){8}1,8,1,2,7,2,3,6,3,6,4,5,4,3,2,1,8,7,8,2,1,2,1>8[2:1]/8<1[2:1],,,,,,,E8/B8/B1/E2,E7/B7/B6/B2/E3/B3,E6/B5/B4/E4,
(204){8}4x,5,4,6,4,7,4,8,4,8,4,7,4,6,4,5,
(204){8}5,4,5,3,5,2,5,1,5,1,5,2,5,3,5,4,
(204){8}1,8,1,7,1,6,1,5,1,5,1,6,1,7,1,8,
(204){8}8,1,8,2,8,3,8,4,8,4,8,3,8,2,8,1,
(204){8}4xh[8:2],5,3xh[8:2],6,2xh[8:2],7,1xh[8:2],8,
(204){8}5xh[8:2],4,6xh[8:2],3,7xh[8:2],2,8xh[8:2],1,
(204){8}4/5,4/5,3/6,3/6,
(204){16}2,7,2,7,1,8,1q4[8:5],8p5[14:8],,,,,,,,,,,,,,,,,
(204){16}4,5,4,5pp8[5:6],4qq1[5:6],,,,,,,,,,,,,,,,,,,,,,,,,,,,
(204){16}4xh[35:1],5xh[35:1],4xh[35:1],5xh[35:1],4xh[35:1],5xh[35:1],4xh[35:1],5pp8[6:7],4qq1[6:7],,,,,,,,,,,,,,,,,,,,,,,,
(204){16}4xh[35:1],5xh[35:1],4xh[35:1],5xh[35:1],4xh[35:1],5xh[35:1],4xh[35:1],5xh[35:1],4xh[35:1],5xh[35:1],4xh[35:1],5xh[35:1],4xh[35:1],5xh[35:1],4xh[35:1],5xh[35:1],4xh[35:1],5xh[35:1],4xh[35:1],5xh[35:1],4xh[35:1],5xh[35:1],4xh[35:1],5xh[35:1],4xh[35:1],5xh[35:1],4xh[35:1],5xh[35:1],4xh[35:1],5xh[35:1],4xh[35:1],6xh[35:1],3xh[35:1],5xh[35:1],4xh[35:1],5xh[35:1],4xh[35:1],5xh[35:1],4xh[35:1],5xh[35:1],4xh[35:1],5xh[35:1],4xh[35:1],5xh[35:1],4xh[35:1],5xh[35:1],4xh[35:1],5xh[35:1],
(204){16}4,5,4,5,3,6,3,6,2,7,2,7,8/1,,,,
(204){16}1xh[35:1],8xh[35:1],1xh[35:1],8xh[35:1],1xh[35:1],8xh[35:1],1xh[35:1],8xh[35:1],1xh[35:1],8xh[35:1],1xh[35:1],8xh[35:1],1xh[35:1],8xh[35:1],1xh[35:1],8xh[35:1],1xh[35:1],8xh[35:1],1xh[35:1],8xh[35:1],1xh[35:1],8xh[35:1],1xh[35:1],8xh[35:1],1xh[35:1],8xh[35:1],1xh[35:1],8xh[35:1],1xh[35:1],8xh[35:1],1xh[35:1],8xh[35:1],
(204){32}2xh[50:1],3xh[50:1],4xh[50:1],5xh[50:1],6xh[50:1],7xh[50:1],8xh[50:1],1xh[50:1],2xh[50:1],3xh[50:1],4xh[50:1],5xh[50:1],6xh[50:1],7xh[50:1],8xh[50:1],1xh[50:1],2xh[50:1],3xh[50:1],4xh[50:1],5xh[50:1],6xh[50:1],7xh[50:1],8xh[50:1],1xh[50:1],2xh[50:1],3xh[50:1],4xh[50:1],5xh[50:1],6xh[50:1],7xh[50:1],8xh[50:1],,
(204){16}1,8,1,8,2,7,2,7,3,6,3,6,5/4,,,,
(204){16}4h[35:1],5h[35:1],4h[35:1],5h[35:1],4h[35:1],5h[35:1],4h[35:1],5h[35:1],4h[35:1],5h[35:1],4h[35:1],5h[35:1],4h[35:1],5h[35:1],4h[35:1],5h[35:1],3h[35:1],5h[35:1],4h[35:1],5h[35:1],4h[35:1],5h[35:1],4h[35:1],5h[35:1],4h[35:1],5h[35:1],4h[35:1],5h[35:1],4h[35:1],5h[35:1],4h[35:1],6h[35:1],3h[35:1],5h[35:1],4h[35:1],5h[35:1],4h[35:1],5h[35:1],4h[35:1],5h[35:1],4h[35:1],5h[35:1],4h[35:1],5h[35:1],4h[35:1],5h[35:1],4h[35:1],5h[35:1],
(204){16}4,5,4,5,3,6,3,6,2,7,2,7,8/1,,,,
(204){16}1h[35:1],8h[35:1],1h[35:1],8h[35:1],1h[35:1],8h[35:1],1h[35:1],8h[35:1],1h[35:1],8h[35:1],1h[35:1],8h[35:1],1h[35:1],8h[35:1],1h[35:1],8h[35:1],2h[35:1],8h[35:1],1h[35:1],8h[35:1],1h[35:1],8h[35:1],1h[35:1],8h[35:1],1h[35:1],8h[35:1],1h[35:1],8h[35:1],1h[35:1],8h[35:1],1h[35:1],2h[35:1],7h[35:1],
(204){32}2xh[50:1],3xh[50:1],4xh[50:1],5xh[50:1],6xh[50:1],7xh[50:1],8xh[50:1],1xh[50:1],2xh[50:1],3xh[50:1],4xh[50:1],5xh[50:1],6xh[50:1],7xh[50:1],8xh[50:1],1xh[50:1],2xh[50:1],3xh[50:1],4xh[50:1],5xh[50:1],6xh[50:1],7xh[50:1],8xh[50:1],1xh[50:1],2xh[50:1],3xh[50:1],4xh[50:1],5xh[50:1],6xh[50:1],7xh[50:1],
(204){16}8-2-7-3-6-4[2:1],,,,,,,,,,,,,,,,
(204){8}1h[20:1],8h[20:1],1h[20:1],2h[20:1],7h[20:1],2h[20:1],3h[20:1],6h[20:1],3h[20:1],6h[20:1],4h[20:1],5h[20:1],4h[20:1],3h[20:1],2h[20:1],1h[20:1],8h[20:1],7h[20:1],8h[20:1],2h[20:1],1h[20:1],2h[20:1],1h[20:1],2h[20:1],
(204){16}4,5,4,5,3,6,3,6,2,7,2,7,8/1,,,,
(204){8}4h[20:1],5h[20:1],4h[20:1],3h[20:1],6h[20:1],3h[20:1],2h[20:1],7h[20:1],
(204){16}3h[35:1],6h[35:1],3h[35:1],6h[35:1],2h[35:1],7h[35:1],2h[35:1],7h[35:1],1h[35:1],8h[35:1],1h[35:1],8h[35:1],1h[35:1],8h[35:1],1h[35:1],8h[35:1],
(204){32}2xh[50:1],3xh[50:1],4xh[50:1],5xh[50:1],6xh[50:1],7xh[50:1],8xh[50:1],1xh[50:1],2xh[50:1],3xh[50:1],4xh[50:1],5xh[50:1],6xh[50:1],7xh[50:1],8xh[50:1],1xh[50:1],2xh[50:1],3xh[50:1],4xh[50:1],5xh[50:1],6xh[50:1],7xh[50:1],8xh[50:1],1xh[50:1],2xh[50:1],3xh[50:1],4xh[50:1],5xh[50:1],6xh[50:1],7xh[50:1],8xh[50:1],1xh[50:1],
(204){16}Cfh[1:1],,,,,,,,,,,,,,,,
(204){16}8-2-7-3-6-4[5:8],,,,,,,,,,,,,,,,,,,,,,,,,,,,,,,,
(204){8}6/5,6/5,7/4,7/4,4/3,4/3,5/2,5/2,
(204){8}7/8,7/8,6/1,6/1,
(204){16}1,8,1-4[10:1],8-5[15:1],,,,,
(204){8}3/4,3/4,2/5,2/5,5/6,5/6,4/7,4/7,
(204){16}2/1,,2/1,,3/8,,3/8,,4/5,,4/5,,3/8,
(204){16}7,6,5,4
(204){8}3/4,3/4,2/5,2/5,5/6,5/6,4/7,4/7,
(204){16}7-1-6-2-5-3[5:3],,,,,,,,,,,,,,,,
(204){8}6/5,6/5,7/4,7/4,4/3,4/3,5/2,5/2,
(204){8}7/8,7/8,6/1,6/1,7/8,7/8,6/1,6/1,
(204){8}3/4,3/4,2/5,2/5,5/6,5/6,4/7,4/7,
(204){16}2/1,,2/1,,3/8,,3/8,,4,3,2,1,
(204){16}8,7,6,5,
(204){8}3/4,3/4,2/5,2/5,5/6,5/6,4/7,4/7,
(204){16}2/1,,2/1,,3/7,,3/7,,2,6,1,5,8,4,7,3,7,3,7,3,7,3,7,3,
(204){32}8,1,2,3,4,5,6,7,8,1,2,3,4,5,6,7,8<1[3:1],,,,,,,,,,,,,,,,,,,,,,,,
(204){8}8/1,5/4,7<1[1:2]/2>8[1:2],E
&inote_7=(204){16},,,,,,,
(204){16},,,,,1x,8x,1x,8x,1>5[1:1],,,,,,,,,,,,,,,,5<1[1:1],,,,,,,,,,,,,,,,1-3-5[1:1],,,,,,,,,,,,,,,,5-7-1[1:1],,,,,,,,,,,,,,,,1>5[1:1],,,,8,,,,7,,,,6,,,,5<1[1:1],,,,4,,,,3,,,,2,,,,1q4[2:1]*p6[2:1],,,,,,,,,,,,,,,,
(204){16}4b/5b,,,,3b/6b,,,,2b/7b,,,,1xb,8xb,1xb,8xb,
(204){8}1,8,1,7,1,6,1,5,1,5,1,6,1,7,1,8,
(204){8}8,1,8,2,8,3,8,4,8,4,8,3,8,2,8,1,
(204){8}1-3[4:1],,8,8-6[4:1],,,,,4p1[2:1],5q8[2:1],,,,,,,
(204){8}4-2[4:1],,5,5-7[4:1],,,,,1q4[2:1],8p5[2:1],,,,,,,
(204){8}4xh[8:2],5,3xh[8:2],6,2xh[8:2],7,1xh[8:2],8,
(204){8}5xh[8:2],4,6xh[8:2],3,7xh[8:2],2,8xh[8:2],1,
(204){8}4/5,4/5,3/6,3/6,
(204){16}2,7,2,7,1,8,1q4[8:5],8p5[14:8],,,,,,,,,,,,,,,,,
(204){4}4/5,3/6,2/7,1/8,
(204){16}5x,6,5,,5x,6,5,,4x,7,4,,4x,7,4,,
(204){16}3x,4,3,,3x,4,3,,2x,5,2,,2x,5,2,,
(204){16}4x,5,4,,3x,6,3,,1,,8,,1,,Ch[8:1],,
(204){16}8x,7,8,,8x,7,8,,1x,6,1,,1x,6,1,,
(204){16}2x,1,2,,2x,1,2,,3x,8,3,,3x,8,3,,
(204){16}1x,8,1,,1x,8,1,,2x,7,2,,2x,7,2,,
(204){16}4,5,3,6,2,7,1,8,1,8,2,7,3,6,4,5,
(204){16}4x,5,4,,4x,6,4,,4x,7,4,,4x,8,4,,
(204){16}4x,5,4,,4x,6,4,,4x,7,4,,4x,8,4,,
(204){16}5x,4,5,,5x,3,5,,5x,2,5,,5x,1,5,,
(204){16}5x,4,5,,5x,3,5,,5-2[7:1],2-7[7:1],,,,,,,
(204){16}1x,8,1,,1x,7,1,,1x,6,1,,1x,5,1,,
(204){16}1x,8,1,,1x,7,1,,1x,6,1,,1x,5,1,,
(204){16}8x,1,8,,8x,2,8,,8x,3,8,,8x,4,8,,
(204){8}E8/B8/B7,B1/E2/B2,B6/E6/B5,B4/B3/E4,A1x/A2x/A3x/A4x/A5x/A6x/A7x/A8x/E1x/E2x/E3x/E4x/E5x/E6x/E7x/E8x/B1x/B2x/B3x/B4x/B5x/B6x/B7x/B8x/D1x/D2x/D3x/D4x/D5x/D6x/D7x/D8x/Cfx,,,,
(204){16}5x,6,5,,5x,6,5,,4x,7,4,,4x,7,4,,
(204){16}3x,4,3,,3x,4,3,,2x,5,2,,2x,5,2,,
(204){16}5x,4,5,,5x,3,5,,5x,2,5,,5x,1,5,,
(204){16}5x,4,5,,5x,3,5,,5-2[7:1],2-7[7:1],,,,,,,
(204){16}1x,8,1,,1x,7,1,,1x,6,1,,1x,5,1,,
(204){16}1x,8,1,,1x,7,1,,1x,6,1,,1x,5,1,,
(204){16}8x,1,8,,8x,2,8,,8x,3,8,,8x,4,8,,
(204){16}4,5,3,6,2,7,1,8,1,8,2,7,3,6,4,5,
(204){16}4x,5,4,,4x,6,4,,4x,7,4,,4x,8,4,,
(204){16}4x,5,4,,4x,6,4,,4x,7,4,,4x,8,4,,
(204){16}5x,4,5,,5x,3,5,,5x,2,5,,5x,1,5,,
(204){16}5x,4,5,,5x,3,5,,5-2[7:1],2-7[7:1],,,,,,,
(204){16}8x,7,8,,8x,7,8,,1x,6,1,,1x,6,1,,
(204){16}2x,1,2,,2x,1,2,,3x,8,3,,3x,8,3,,
(204){16}8/7,,7/6,,6/5,,5/4,,4/3,,
(204){16}2,1,2,1,8,1-5[3:1],8-4[3:1],,,,,,,,,,,,4/5,,3/6,,
(204){16}1>5[1:1],,,,,,,,,,,,,,,,5<1[1:1],,,,,,,,,,,,,,,,1-3-5[1:1],,,,,,,,,,,,,,,,5-7-1[2:1],,,,,,,,,,,,,,,,
(204){8}1,8,1,2,7,2,3,6,3,6,4,5,4,3,2,1,8,7,8,2,1,2,1>8[2:1]/8<1[2:1],,,,,,,E8/B8/B1/E2,E7/B7/B6/B2/E3/B3,E6/B5/B4/E4,
(204){8}4x,5,4,6,4,7,4,8,4,8,4,7,4,6,4,5,
(204){8}5,4,5,3,5,2,5,1,5,1,5,2,5,3,5,4,
(204){8}1,8,1,7,1,6,1,5,1,5,1,6,1,7,1,8,
(204){8}8,1,8,2,8,3,8,4,8,4,8,3,8,2,8,1,
(204){8}4xh[8:2],5,3xh[8:2],6,2xh[8:2],7,1xh[8:2],8,
(204){8}5xh[8:2],4,6xh[8:2],3,7xh[8:2],2,8xh[8:2],1,
(204){8}4/5,4/5,3/6,3/6,
(204){16}2,7,2,7,1,8,1q4[8:5],8p5[14:8],,,,,,,,,,,,,,,,,
(204){16}4,5,4,5pp8[5:6],4qq1[5:6],,,,,,,,,,,,,,,,,,,,,,,,,,,,
(204){16}4xh[35:1],5xh[35:1],4xh[35:1],5xh[35:1],4xh[35:1],5xh[35:1],4xh[35:1],5pp8[6:7],4qq1[6:7],,,,,,,,,,,,,,,,,,,,,,,,
(204){16}4xh[35:1],5xh[35:1],4xh[35:1],5xh[35:1],4xh[35:1],5xh[35:1],4xh[35:1],5xh[35:1],4xh[35:1],5xh[35:1],4xh[35:1],5xh[35:1],4xh[35:1],5xh[35:1],4xh[35:1],5xh[35:1],4xh[35:1],5xh[35:1],4xh[35:1],5xh[35:1],4xh[35:1],5xh[35:1],4xh[35:1],5xh[35:1],4xh[35:1],5xh[35:1],4xh[35:1],5xh[35:1],4xh[35:1],5xh[35:1],4xh[35:1],6xh[35:1],3xh[35:1],5xh[35:1],4xh[35:1],5xh[35:1],4xh[35:1],5xh[35:1],4xh[35:1],5xh[35:1],4xh[35:1],5xh[35:1],4xh[35:1],5xh[35:1],4xh[35:1],5xh[35:1],4xh[35:1],5xh[35:1],
(204){16}4,5,4,5,3,6,3,6,2,7,2,7,8/1,,,,
(204){16}1xh[35:1],8xh[35:1],1xh[35:1],8xh[35:1],1xh[35:1],8xh[35:1],1xh[35:1],8xh[35:1],1xh[35:1],8xh[35:1],1xh[35:1],8xh[35:1],1xh[35:1],8xh[35:1],1xh[35:1],8xh[35:1],1xh[35:1],8xh[35:1],1xh[35:1],8xh[35:1],1xh[35:1],8xh[35:1],1xh[35:1],8xh[35:1],1xh[35:1],8xh[35:1],1xh[35:1],8xh[35:1],1xh[35:1],8xh[35:1],1xh[35:1],8xh[35:1],
(204){32}2xh[50:1],3xh[50:1],4xh[50:1],5xh[50:1],6xh[50:1],7xh[50:1],8xh[50:1],1xh[50:1],2xh[50:1],3xh[50:1],4xh[50:1],5xh[50:1],6xh[50:1],7xh[50:1],8xh[50:1],1xh[50:1],2xh[50:1],3xh[50:1],4xh[50:1],5xh[50:1],6xh[50:1],7xh[50:1],8xh[50:1],1xh[50:1],2xh[50:1],3xh[50:1],4xh[50:1],5xh[50:1],6xh[50:1],7xh[50:1],8xh[50:1],,
(204){16}1,8,1,8,2,7,2,7,3,6,3,6,5/4,,,,
(204){16}4h[35:1],5h[35:1],4h[35:1],5h[35:1],4h[35:1],5h[35:1],4h[35:1],5h[35:1],4h[35:1],5h[35:1],4h[35:1],5h[35:1],4h[35:1],5h[35:1],4h[35:1],5h[35:1],3h[35:1],5h[35:1],4h[35:1],5h[35:1],4h[35:1],5h[35:1],4h[35:1],5h[35:1],4h[35:1],5h[35:1],4h[35:1],5h[35:1],4h[35:1],5h[35:1],4h[35:1],6h[35:1],3h[35:1],5h[35:1],4h[35:1],5h[35:1],4h[35:1],5h[35:1],4h[35:1],5h[35:1],4h[35:1],5h[35:1],4h[35:1],5h[35:1],4h[35:1],5h[35:1],4h[35:1],5h[35:1],
(204){16}4,5,4,5,3,6,3,6,2,7,2,7,8/1,,,,
(204){16}1h[35:1],8h[35:1],1h[35:1],8h[35:1],1h[35:1],8h[35:1],1h[35:1],8h[35:1],1h[35:1],8h[35:1],1h[35:1],8h[35:1],1h[35:1],8h[35:1],1h[35:1],8h[35:1],2h[35:1],8h[35:1],1h[35:1],8h[35:1],1h[35:1],8h[35:1],1h[35:1],8h[35:1],1h[35:1],8h[35:1],1h[35:1],8h[35:1],1h[35:1],8h[35:1],1h[35:1],2h[35:1],7h[35:1],
(204){32}2xh[50:1],3xh[50:1],4xh[50:1],5xh[50:1],6xh[50:1],7xh[50:1],8xh[50:1],1xh[50:1],2xh[50:1],3xh[50:1],4xh[50:1],5xh[50:1],6xh[50:1],7xh[50:1],8xh[50:1],1xh[50:1],2xh[50:1],3xh[50:1],4xh[50:1],5xh[50:1],6xh[50:1],7xh[50:1],8xh[50:1],1xh[50:1],2xh[50:1],3xh[50:1],4xh[50:1],5xh[50:1],6xh[50:1],7xh[50:1],
(204){16}8-2-7-3-6-4[2:1],,,,,,,,,,,,,,,,
(204){8}1h[20:1],8h[20:1],1h[20:1],2h[20:1],7h[20:1],2h[20:1],3h[20:1],6h[20:1],3h[20:1],6h[20:1],4h[20:1],5h[20:1],4h[20:1],3h[20:1],2h[20:1],1h[20:1],8h[20:1],7h[20:1],8h[20:1],2h[20:1],1h[20:1],2h[20:1],1h[20:1],2h[20:1],
(204){16}4,5,4,5,3,6,3,6,2,7,2,7,8/1,,,,
(204){8}4h[20:1],5h[20:1],4h[20:1],3h[20:1],6h[20:1],3h[20:1],2h[20:1],7h[20:1],
(204){16}3h[35:1],6h[35:1],3h[35:1],6h[35:1],2h[35:1],7h[35:1],2h[35:1],7h[35:1],1h[35:1],8h[35:1],1h[35:1],8h[35:1],1h[35:1],8h[35:1],1h[35:1],8h[35:1],
(204){32}2xh[50:1],3xh[50:1],4xh[50:1],5xh[50:1],6xh[50:1],7xh[50:1],8xh[50:1],1xh[50:1],2xh[50:1],3xh[50:1],4xh[50:1],5xh[50:1],6xh[50:1],7xh[50:1],8xh[50:1],1xh[50:1],2xh[50:1],3xh[50:1],4xh[50:1],5xh[50:1],6xh[50:1],7xh[50:1],8xh[50:1],1xh[50:1],2xh[50:1],3xh[50:1],4xh[50:1],5xh[50:1],6xh[50:1],7xh[50:1],8xh[50:1],1xh[50:1],
(204){16}Cfh[1:1],,,,,,,,,,,,,,,,
(204){16}8-2-7-3-6-4[5:8],,,,,,,,,,,,,,,,,,,,,,,,,,,,,,,,
(204){8}6/5,6/5,7/4,7/4,4/3,4/3,5/2,5/2,
(204){8}7/8,7/8,6/1,6/1,
(204){16}1,8,1-4[10:1],8-5[15:1],,,,,
(204){8}3/4,3/4,2/5,2/5,5/6,5/6,4/7,4/7,
(204){16}2/1,,2/1,,3/8,,3/8,,4/5,,4/5,,3/8,
(204){16}7,6,5,4
(204){8}3/4,3/4,2/5,2/5,5/6,5/6,4/7,4/7,
(204){16}7-1-6-2-5-3[5:3],,,,,,,,,,,,,,,,
(204){8}6/5,6/5,7/4,7/4,4/3,4/3,5/2,5/2,
(204){8}7/8,7/8,6/1,6/1,7/8,7/8,6/1,6/1,
(204){8}3/4,3/4,2/5,2/5,5/6,5/6,4/7,4/7,
(204){16}2/1,,2/1,,3/8,,3/8,,4,3,2,1,
(204){16}8,7,6,5,
(204){8}3/4,3/4,2/5,2/5,5/6,5/6,4/7,4/7,
(204){16}2/1,,2/1,,3/7,,3/7,,2,6,1,5,8,4,7,3,7,3,7,3,7,3,7,3,
(204){32}8,1,2,3,4,5,6,7,8,1,2,3,4,5,6,7,8<1[3:1],,,,,,,,,,,,,,,,,,,,,,,,
(204){8}8/1,5/4,7<1[1:2]/2>8[1:2],E
