&title=REZIDUAL MiND
&artist=あとぅす feat. つゆり花鈴
&first=0.22
&lv_5=14
&des_5=しのゆめ(しろゆめ feat. しのさく.)
&inote_5=
(157){4},,,,{8}7,
6,4,3h[8:3],,,,{16}3,4,
{8}2,{4},{8}8,7,6h[4:1],4,3,
2h[4:1],6,5,{16}1,8,{8}1,2,3>8[8:1],4,
5,6>3[8:1],7,8,{2}1<3[8:1],
6b-1[8:1]/2b-5[8:1],7b-4[8:1]/3b-8[8:1],
{16}6/4b,{8},{16}7b/3,{8},8/2b,{16}1x,1x,1x,1x,{4}1x-5[8:1],
{8}1<6[8:1],6,1/5>2[8:1],2,7/5,{24}E8,E1,E2,E3,E4,E5,E6,E7,E8,
{1}E1/Cfh[1:1],
{4},,,{8}5x,6,
{16}2,4,2,4,3,5,3,5,4,4,6,6,5,7,4,8,
3,1,3,1,4,6,3,7,{4}2-5[8:1],{8}6<1[8:1],7,
{4}2>5[8:1],2<7[8:1],2w6[8:1],2,
{8}6/5h[4:1],8,6h[4:1],8,{4}7-4[8:1],{8}7,8,
{16}2,4,2,4,3,5,3,5,4,4,6,6,5,7,4,8,
3,1,3,1,4,6,3,7,{4}2x,3<5[8:1],
7<4[8:1]/3q8[8:1],7>2[8:1],7w3[8:1],7,
{16}8b-6[12:1]/4b-2[12:1],{8},{16}8b/4b,{8},5b,{4}1b,{8}6/3-5[8:1],2,
{4}7,8,{8}1/6,5,4/8qq5[2:1],3,
{2}2h[4:1],{4}2,{8}3,3,
{4}2-8[8:1],{8}7,6,5/7,4,3/1pp5[2:1],8,
{4}1h[2:1],{2},{16}4,5,{8}4,
7-4[8:1],6,7/3>8[8:1],2,3/7<4[8:1],6,7/3,2,
{4}1>3[8:1],7/1,6/3-5[8:1],7-4[8:1],
{8}7,{4},{8}5<1[8:1],{4},{8}2,3,
{4}4q1[4:1],1q6b[4:1],{2}6<4[4:1],
{4}8b,2,{8}3/6,7,1/8>6[2:1],2,
{2}3h[4:1],{4}3,{8}7,8,
{4}1/3,{8}4/6,3,2/8,7,5/3,2,
{16}1h[16:3],{8},{16}3h[16:3],{8},2h[8:1],{4}5h[4:1],{8}1x,{16}2,2,
7<4[4:1],{8},{16}7,{8},1,2>5[4:1],2,1,8,
{16}6q4[4:1],{8},{16}1,{8},1,{4}1h[4:1],{8}3,{16}4,2,
{8}5,5,3,{16}3,4,{8}2,1,8,7,
{24}4,3,2,8,7,6,3,2,1,7,6,5,{4}4xh[8:1],{8}7/1,8,
{16}2-4[8:1],{8},{16}2,{8}8-6[8:1],5,8-3[8:1],1,4-7[8:1],6,
{4}2/4-1[8:1],6/4-6[8:1],1/4-2[8:1],4/7,
{8}6,{16}3,4,{8}2,8,{16}1,7,{8}1,{16}5,3,{8}5,
6/4,3,{16}7,5,7,5,{8}8,1,{32}6,5,4,3,2,1,8,7,
2/6,3,4,5,6,7,8,1,{16}2b-4[8:1],{8},{16}2,{8}8-6[8:1],5,8-3[8:1],1,
{4}4-7[8:1],2/4-1[8:1],{8}6/4-6[8:1],7,1/4-2[8:1],2,
4/7,{16}8,1,{8}8,7/2,{16}3,4,3,4,{8}5/2,3,
2/6,{16}B7/E7,3,{8}5,B5/E6,3,E8/B8,{4}5h[4:1],
{24}E1,E8,{12}E7,{6},,,,,{24}E2,
E3,{12}E4,{6},,,,,{24}E7,
E6,{12}E5,{3},{24}E3,E2,{12}E1,{3},{24}E8,
C,{12}E4,{3},{4}E1,B7/B2,
{8}3x/6x,{16}2,1,3,8,4,7,5,6,8,7,1,6,2,5,
{8}1,3/5,4/6,5/7h[8:1],{16}6,7,4,5,2,3,1,8,
5,6,1,8,3,4,1,8,5,6,1,8,3,4,8,1,
{4}6b,E1,E7/E3,E6/E4/E5,
{8}2>4[8:1],{16}1,8,{8}2,7,{16}6,5,7,3,4,2,{8}8h[8:1],
1-3[8:1],{16}4,5,{8}1,7,8,{16}2,1,{8}3,8,
{16}2,4,2,4,3,5,3,5,1,6,2,4,{4}3h[8:1],
{8}2/7-1[8:1],1/5,7-5[8:1]/2-8[8:1],3,{4}7/2-5[8:1],{8}6,6,
7b,{16}3,5,{8}4,7,{16}8,6,1,7,2,5,4,2,
3,2,6,5,7,4,8,3,6,2,5,3,{8}7,3,
5<7[8:1],{16}4,5,{8}3,1,{16}3,5,2,6,{8}1-3[8:1],8,
{16}1-5[8:1],{8},{16}6,{8}1,7,{4}8h[4:1],{8}3,2,
3>1[8:1],{16}5,5,{8}3,6,{16}7,8,6,2,1,3,{8}5h[8:1],
4-2[8:1],{16}1,8,{8}4,6,{16}5,3,8,4,6,5,7,8,
6,3,4,2,6,5,7,2,1,3,6,5,7,3,4,2,
{8}8/1,2/4,7/5,8/1,{4}1/8-4[8:1],{8}8x/1x,3,
5,{16}3,4,{8}1,6,7/3,8,1,{16}3,4,
{8}2h[4:1],6,8h[4:1],4,{4}2,{8}6,7,
2,{16}3,6,{8}4,7,8,{24}1,2,3,4,8,7,6,{12},{16}5/3b-1[8:1],
{8},{16}7/1b-5[16:3],{8},8b,{2}6b,
{4}3h[4:1],5h[4:1],1h[4:1],7h[4:1],
{16}3h[8:3],{8},,,{16}7,{4}6h[4:1],{8}3,2,
{4}2h[4:1],3h[4:1],1h[4:1],8,
{16}7h[8:3],{8},,,{16}4h[16:5],{8}5,6,7,{16}1,1,
4,2,4,2,6,4,6,4,3,5,2,6,1,7,1,7,
2h[16:3],{8},{16}6,{8}1h[8:1],4,{4}2h[4:1],{8}5,6,
{16}1,5,3,5,3,5,3,5,2,6,4,6,4,6,4,6,
{32}3,4,5,6,7,8,1,2,{8}3/6,8b,,1,7,{16}3,4,
{4}2h[1:1],{2},{4}5,
{8}6h[2:1],{4},{8}4,4h[4:1],7,7h[4:1],5,
{2}5h[2:1],4h[2:1],
2h[2:1],{4}4x,5,
7-5[8:1],4<8[4:1],{2}8>4[4:1],
{4}8-6[8:1],5<1[4:1],1>5[4:1],3,
{2}3h[2:1],5h[1:1],
{16}6b,{8},{16}7b,{8},2b,{4}3b,{16}4,5,4,5,
{8}2>4[8:1],{16}1,8,{8}2,7,{16}6,5,7,3,4,2,{8}8h[8:1],
1-3[8:1],{16}4,5,{8}1,7,8,{16}2,1,{8}3,8,
{16}2,4,2,4,3,5,3,5,1,6,2,4,{8}3,2,
7-1[8:1],1/5,7-5[8:1]/2-8[8:1],3,{4}7/2>5[8:1],{32}A6/A2,A7,A8,A1,{8},{4}6-1[8:1],
6/2-5-3[4:1],{8}2,1,8,6,
{32}3/5h[8:1],2,{16}1,{8}7,{32}8/1h[8:1],7,{16}6,{8}4,{4}5/3,{8}2x,{16}8,1,
{8}6/4,{16}7,1,3,5,3,5,4,4,2,2,{8}6h[4:1],2,
{32}2b,1/5,4/8,3/7,{16},{32}2/6,3/7,{8}8/4,{48}3,4,5,6,7,8,{4}1/5b,{8}6/4,3,
{16}8,1,8,1,8,1,8,1,{32}7x,6,5,4,7x,8,1,2,6x,5,4,3,7x,8,1,2,
8/3bh[32:3],7,{16}6,,{32}1/8bh[32:3],2,{8}3,{32}7/2bh[32:3],6,{16}5,{32}8b,B2f,C,B6,{8},,,{1}C,
E
&lv_6=1
&des_6=
&inote_6=
(157){4},,,,,,,,,,,,,,,,,,{16}1,
8,{8}1,2/7,6/3,
{1}4b,
E
