&title=parvorbital
&artist=frums
&first=0
&lv_5=14+
&des=0x9c
&des_5=0x9c
&inote_5=
(197){4},{16},,,,,,,,,,,,6h[16:1],
,,6h[16:1],,,{8}6h[16:1],{16},6h[16:1],,,6h[16:1],,,3,
6h[16:1],,,6h[16:1],,,{8}6h[16:1],{16},6h[16:1],,,6h[16:1],,,4,
6h[16:1],,,6h[16:1],,,{8}5,5,6h[16:1],{16},6h[16:1],,,5h[16:1],
,,5h[16:1],,,6/4,7,8,1,2,3,{8}5h[8:1],8h[8:1],
{16}3h[16:1],,,3h[16:1]/7h[8:1],,,{8}3h[16:1],{16},3h[16:1]/7h[8:1],,,3h[16:1],,,7,
2h[16:1],,,2h[16:1]/6h[8:1],,,{8}2h[16:1],{16},2h[16:1]/6h[8:1],,,2h[16:1],,,6,
1h[16:1],,,1h[16:1]/5h[8:1],,,{8}1h[16:1],5,1h[16:1],{16},1h[16:1]/5h[8:1],,,1h[16:1],
,,1h[16:1]/5h[8:1],,,{8}1h[16:1],5h[16:1],2h[16:3],{16},6,,,5x/7h[16:3],
,,3,,,{8}4x/2h[16:3],{16},6,,,5x/7h[16:3],,,2,
,,{8}4x/2h[16:3],{16},7,,,5x/7h[16:3],,,1,,,{8}4x/2h[16:3],
{16},8,,,7h[16:3]/A5,,,A1,,,{8}2h[16:3]/A4,{16},A8,,,{8}5/7h[8:1],
B4,B3,7h[8:1],E6,B5,{4}8,
{8}5/7h[8:1],B4,B3,7h[8:1],E6,B5,8h[16:1],8h[16:1],
2h[8:1],B5,B6,2h[8:1],E4,B4,{4}1h[16:1],
{16}2,3,4,1,8,7,6,5,1,2,3,8,7,6,5,4,
{8}2h[8:1],B5,B6,2h[8:1],B4,B5,{4}1,
{8}4/2h[8:1],B5,B6,2h[8:1],E4,B4,1h[16:1],1h[16:1],
7h[8:1],B4,B3,7h[8:1],E6,B5,{4}8h[16:1],
{16}8,7,6,5,4,1,2,3,7,6,5,4,3,8,1,2,
{8}6h[8:1],B2,C,6h[8:1],E4,E5,{4}7,
{8}6h[8:1],B2,C,6h[4:1],{16}E4,E5,E6,E7,E8,E1,{8}5-7[8:1],
5-3[8:1],5-1[8:1],,,2-6[8:1],2-4[8:1],,,5,
4x<6[8:1],{4}3,{8}3,4-7[8:1],,,3h[8:1],
B7,C,3h[8:1],E6,E5,{4}2,
{8}3h[8:1],B7,C,3h[4:1],{16}E6,E5,E4,E3,E2,E1,{8}4-2[8:1],
4-6[8:1],4-8[8:1],,,7-3[8:1],7-5[8:1],,,4,
5x>3[8:1],{4}6,{8}6,5,4-8[1:3],3,
6h[8:1],,,6h[8:1],,,,,6h[8:1],
,,6h[8:1],,,,,6h[8:1],
,,6h[8:1],,,,,{4}6h[8:1],
{16}2h[16:1],,,6h[16:1],,,{8}2,{4}2/5-1[0.3046##3.6548],
{8}3h[8:1],,,3h[8:1],,,,,3h[8:1],
,,3h[8:1],,,,,3h[8:1],
,,3h[8:1],,,5,5bw1[0.3046##1.066],
{1},
{8},,(133)8-4[8:1],7,1-5[8:1],3,6-8[8:1],7,
4-6[8:1],3,2-4[8:1],1,8-2[8:1],7,6,{16}5,3,
{8}4,2/5,1-6[8:1],2/8,{4}1-5[8:1],{8}7-3[8:1],6,
8-4[8:1],2,5-7[8:1],6,3-5[8:1],2,1-3[8:1],8,
7-1[8:1],6,5,5,{16}3,4,,6,{8}5-2[8:1],4/7,
{4}5v7[8:1],{8}1-4[8:1],2,8-5[8:1],6,3-8[8:1],4,
6-3[8:1],7,1-6[8:1],2,4-1[8:1],5,6,{16}7,8,
1,7,,2,{8}8-3[8:1],7/1,{4}8-4[8:1],{8}2-5[8:1],3,
1-6[8:1],7,4-1[8:1],5,7-4[8:1],6,2-7[8:1],3,
{16}5,,,6,5,,,3,{8}4,5/2,{16}8,7,,1,
2,8h[16:3],,,{8}4,{16}6,6,4,5,,5,3,4,3,4,
{8}3h[16:1],{16}4,3h[16:1],,5,{8}3h[16:1],{16}6,3h[16:1],,7,7,7,,1,
6,5,4,3,6,{32}3,4,5,6,{16}3,{32}8,,,8,,,{16}8,4,4,6,5,
6,3,5,4,6,5,6,4,4,6,3,{32}6,5,4,3,{16}6h[16:1],,5,
{8}6h[16:1],{16}4,6h[16:1],,3,{8}6h[16:1],{32}4-8[8:1],3,5,6,{16}4,4,{4}4h[4:1],
{16},,2,4,3,4,2,2,5-1[8:1],4,7-4[8:1],7,{8}5,7,
{32}8,1,2,3,{8}4,{16}6,{32}4,5,{16}4,7,{8}7h[8:1],{16}5,7,5,7,5-1[8:1],7,
{8}7-4[8:1],5,{32}7,,,8,,,{16}5,{32}8,1,2,3,{8}4,{16}6,5,7,7,
4-8[8:1],5,2-5[8:1],2,{8}4,2,{16}1,1,4,4,6,5,4,3,
{8}7h[16:1],{16}4,6h[16:1],,3,4,5,2,2,6,4,5,4,6,3,
6,{32}4,5,{16}4,6,{8}2h[16:1],{16}5,3h[16:1],,6,5,4,7,7,3,5,
4,6,3,5,{32}4,3,2,1,5,6,7,8,{2}4>4[1:1]/1<4[128:131],
{16},,,,,,,,,,,,,,,,(165)7h[16:3],
,,5,,,{8}3h[4:1],{16},,E4,E5,E6,E7,,1,
,,{8}8/6,{16},7/1,,,2p1[2:1],,,2h[16:9],,,,,,,,,,,,,8,
,,8V62[16:5]/6V42[16:5],,,,,,,,,,,,,2h[16:3],
,,4,,,{8}6h[4:1],
{16},,5,4,3,2,,8,,,{8}1/3,{16},2/4,,,3q5[2:1],
,,3h[16:9],,,,,,,,,,,,,1,
,,8,,,{8}6qq4[16:3]/2qq8[16:3],,,,,{4}1/5,
{16}2,3,{24}5,6,7,8,1,{12}2,3,7/4,{24},{8}1h[16:3],
{16},5,,,6h[16:3],,,4,,3,4,5,{12}2,3,4,
{8}1,{16}2,8,3,3h[8:1],,7,{8}7h[8:1],{24}3,,4,,5,{48},,{16}3,4,
5,6,2,3,4,6,7,8,1h[16:3],,,5h[16:3],,,{8}7h[16:3],
{16},3h[16:3],,,{8}8,8h[8:1],{16},4h[8:1],,,6h[8:1],,,2h[8:1],
,,{8}7,{16}7h[16:1],,,3h[16:1],,,{8}5h[16:1],{16},1h[16:1],,,6,
,,7h/4h,,,,1/2h,,,,5/8qq3[16:25],,,,,{1}4h[4:3],
{16},,,,,,,,,,,,1p8[1:1],,,1h[16:9],
{1},{4},,{16}3q5[1:1],
4,5,3h[16:9],{1},{4},,{16}2/6,
,,3v1[0.3636##1.9091]/7v5[0.3636##1.9091],{1},{4},,{1},
{8},,,(101)8-4[16:35],{16}1,1,{8}7,{16}3,3,{32}5,6,7,1,
2,3,4,5,{8}7,{32}6,,,3,,,{16}7,{12}1,{24}6,2,{48},{16}2,5,3,3,6,
1,1,7,2,8-4[16:1],{32}7,6,{16}5,{32}1,2,{8}8,3,{32}5,6,7,8,1,2,3,4,
{16}1,6,{8}3h[16:1]/8h[16:1],3h[16:1]/8h[16:1],{96}1,,,,,1,,,,,{48}1,{96},,,{32}2,8,2,{16}8,2,8/1-5[128:279],2/7,3/6,4/5,
{8}2,{16}2,6,{32}4,3,2,8,7,6,5,4,{8}2,{32}3,,,6,,,{16}2,{24}8,,3,
{16}7,7,4,6,6,3,8,8,2,7,{24}1-5[16:1],2,3,8,7,6,1,,,{8}6,
{32}4,3,2,1,8,7,6,5,{16}8,3,{8}1h[16:1]/6h[16:1],6h[16:1]/1h[16:1],{96}8,,,,,8,,,,,{48}8,{96},,,{32}7,1,7,
{16}1,8,{8}8-4[128:371],7/5,{16}3,3,{32}5,6,7,1,2,3,4,5,{8}1h[16:1],{16}3,5,
{8}2h[16:1],{32}6,7,8,1,{16}2,3,{8}7h[16:1],{16}3,3,5,2,{48}E6,E7,E8,E1,E2,E3,,,,,,,{16}7h[32:1],
7h[32:1],3h[32:1],3h[32:1],{8}5h[16:1],5h[16:1],{16}1,1,8-4[16:1],7,{32}1,2,{16}3,{8}8,
{16}3,3,{8}5h[16:1],{32}1,2,3,4,{8}8h[8:1],1,3,7/4,{16}5,2,
{32}6,7,8,1,{16}2,3,{8}8h[16:1],2h[16:1],{16}6,6,{8}4,{32}3,2,1,8,{8}7,
2h[16:1],6h[16:1],{16}8,8,1,{32}7,6,{16}5,{32}1,2,{8}3,8h[8:1],{32}4,3,2,1,
8,7,6,5,{8}8h[16:1],{4}3h[8:1]/8h[8:1],{96}1,,,,,1,,,,,{48}1,{96},,,{32}2,8,2,{16}8,1-5[0.5941##1.6337],{8}7h[8:1],
{16},,,,,,,,,,,,,,,,(229)1,
2,3,4,5,6,7,8,1,2,3,4,5,6,7,8z4b[0.262##0.1965],
{1}1s5b[8:1],
E
