&title=Lyrith -迷宮リリス-
&artist=ユメミド
&first=0.65
&des=Greentea_3064
&lv_1=14+
&lv_5=14+
&inote_1=(177)
{32}B5,B6,E7,,,,,,4,,,,,,,,3,,,,,,,,1,,,,,,,,8h[2:1],,,,,,,,,,,,,,,,2h[2:1],,,,,,,,,,,,,,,,6x,,B6,,,,,,7,,,,,,,,8,,,,,,,,1,,,,,,,,2h[4:3],,,,,,,,,,,,3,,,,3h[4:1],,,,,,,,,,,,,,,,4<8[8:5]/2h[4:1],,,,,,,,,,,,,,,,2h[4:1],,,,,,,,,,,,,,,,4>1[8:5],,,,7xh,,,,6xh,,,,7xh,,,,6xh,,,,7xh,,,,6xh,,,,,,,,5<1[8:5]/2h[4:1],,,,,,,,,,,,,,,,2h[4:1],,,,,,,,,,,,,,,,
(22.125)
{16}4-8b[64:1]/5-1b[64:1],5h[32:5]/4h[32:5],,,
(177)
{16}4b/5b,,,,7,,6,,5h[4:1],,,,,,2,3,4/5,,,,2,5,4,5,2,6,5,6,2h[8:1],,,,2b/5b,,3,,4,,3,,7b/4b,,6,,5,,6,,E2,E4,B8,B5,B1,B4,E8,E6,E3,B3,B4,E5,E7,B7,B8,E1,3/1-6[16:1],,3,,3/1,,3,,2/5-8[16:1],,2,,2/5,,2,,
&inote_5=(1416)
{4}B5,B6,
(177)
{32}E7,,,,,,,,
{4}4,3,1,7h[2:1],,2h[2:1],,
{16}6x,B6,,,
{4}3,2,1,2h[4:3],
{8},3,3h[4:1],,
{4},4<8[8:5]/2h[4:1],,2h[4:1],,
{8}4>1[8:5],7xh,6xh,7xh,6xh,7xh,6xh,,
{4}5<1[8:5]/2h[4:1],,2h[4:1],,
(22.125)
{16}4-8b[64:1]/5-1b[64:1],5h[32:5]/4h[32:5],,,
(177)
{8}4b/5b,,7,6,5h[4:1],,,
{16}2,3,
{16}4/5,,,,2,5,4,5,2,6,5,6,2h[8:1],,,,
{8}2b/5b,3,4,3,7b/4b,6,5,6,
{16}E2,E4,B8,B5,B1,B4,E8,E6,E3,B3,B4,E5,E7,B7,B8,E1,
{8}3/1x-6[8:1],3,3/1,3,2/5-8[8:1],2,2/5,2,
{16}2,3,4,5,8,7,6,5,1,2,3,4/5,6,7,8,1,
{8}3/2-6[8:1],3,3/2,3,4/5-8[8:1],4,4/5,4,4,8,
{16}6x,5b/7,,3x,4b/2,,
{1}1bq2[8:5]/5bq6[8:5],
{16},4,,,3,,
{8}2/B6,,4,3,2,,4,3/B6,2/B7,2,3,3/B7,4/B6,,5,6,
{8}7/B3,,5,6,7,,5,6/B3,7/B2,7,6,6/B2,5/B3,,3,2,
{8}1/E6,,3,2,1,,3,2/E7,1/B6,1,2,2/B6,3/E7,,1-5[8:1],2,
{16}3/1bx,,,,8-4[8:1],,7,,6/8bx,,,,1-5[8:1]/8-4[8:1],,7/2,,1b-3[8:1]/8b-6[8:1],,,,1b-5[8:1]/8b-4[8:1],,,,1b/8b,,,,3,,3,,
{8}2v5[16:1]/5,3,2/5,6,7v4[16:1]/4,6,7/4,3,
{8}2/5,1,7/4,8,3/4,1,6/5,8,
{8}7v4[16:1]/4,6,7/4,3,2v5[16:1]/5,3,2/5,6,
{8}6/4,8,3/5,1,7/5,8,2-4[8:1]/4,1,
{8}2v5[8:1]/6,,2-4[8:1]/7,,2v5[8:1]/6,,2/7,,
{8}2/4,1,3/5,1,4/6,8,7-5[8:1]/5,8,
{8}7v4[8:1]/3,,7-5[8:1]/2,,7v4[8:1]/3,,7/2,,
{8}3/5,2,6/4,7,3/5,1,6/4,8,
{16}A1/8h[2:1],D2,A2,D3,A4,D4,A3,D3,
{16}A1,D2,A2/7,D3,A4/6,D4,A3/5,D3,
{16}A1/6h[8:1],D2,A2,D3,A4/7,D4,A3/8,D3,
{16}A1/8,D2,A2,D3,A4/6,D4,A3/7,D3,
{16}A1/8h[2:1],D2,A2,D3,A4,D4,A3,D3,
{16}A1,D2,A2/7,D3,A4/6,D4,A3/5,D3,
{16}A1/6h[8:1],D2,A2,D3,A4/7,D4,A3/8,D3,
{16}A1/8h[8:1],D2,A2,D3,A4/6,D4,A3/7,D3,
{16}8b,,,,8b,8b,8b,8b,8bw4[8:1],,,,8b,,,,
{16}7/2,,2,,2/5,,5,,5/3,,Ch[16:1],B7,A7,,,,
{8}2/4,2,3/5,5,4/6,4,5/7,7,1b-4[8:1]*-6[8:1],,1bw5[4:1],,1b,,A5,,
{8}1<6[8:1]/8,2,3,4>1[8:1],5,6,7<4[8:1],8,1,2,3,4,
{16}8x,8,8x,8,8>3[8:1],,
{8}7,6,5<8[8:1],4,3,2>5[8:1],1,8,7,6,5,
{16}1x,1,1x,1,
{16}1,,1,8,1,,8/3,,1,2,1,,7/4,,6,5,6,,2/5,,3,4,3,,3,5,2,4,
{16}1/3,,2,2,2,,8/6,,7,7,7,,2/4,,3,3,3,,7/5,,6,6,6,,5,7,4,6,
{8}3b-8[8:1]/5b,2,3/6-2[8:1],5,6/4p8[8:1],3,7v4[8:1],6,7/2-8[8:1],1,2/6-4[8:1],5,
{16}6/4,3,2,1,
{8}8-5[8:1]/7b,1,8/6v1[8:1],7,6/2v5[8:1],3,2/8-3[8:1],1,8/4-2[8:1],5,4/7,6,
{16}5,6,7,8,
{8}1>4[8:1]/6b,2,8-3[8:1]/1,7,8/4v1[8:1],5,4/7-5[8:1],6,7/1-5[8:1],8,1/6,7,
{16}4,3,2,1,
{8}8/7b-3[8:1],8,1,2x-6[8:1],3,4,5x-1[8:1],6,7,8x-4[8:1],1,2,
{16}3,2,1,8,
{8}7/5,5,4,4,6,6,3,3,
{16}7,7,2,2,8,8,1,1,2b/7b,,3b/6b,,
{4},
{4}8bq1[4:25]/4h[8:7],,,,
{4}5h[8:3],,7h[8:3],,
{1}6h[8:7],
{4}5h[8:3],,4h[8:1],3h[8:1],
{4}2h[8:5],,,3h[8:1],
{4}5h[8:3],,4h[8:1],7h[8:1],
{4}8h[1:2],,,E6,B6,,,E6,B6,
{4}3bh[8:1]/6bh[8:1],2bh[8:1]/7bh[8:1],1bh[8:1]/8bh[8:1],
{8}3/6,3/6,2/7,2/7,1-5[16:1]/8-4[16:1],,8b/1b,,
{16}3-8[12:1]/6,,,6,6/3,,6,,3-8[12:1]/5,,,5,5/3,,5,,3-8[12:1]/4,,,4,4/3,,4,,2,1,8,7,6/2,1,8,7,6-1[12:1]/3,,,3,3/6,,3,,6-1[12:1]/4,,,4,4/6,,4,,6-1[12:1]/5,,,5,5/6,,5,,5,6,7,8,1/5,6,7,8,1/2-5[12:1],,,1,1/2,,1,,8/7-4[12:1],,,8,8/7,,8,,1/7,,2,,3/7,,6,,5/2,,3,,4/8,,7,,6bh[8:1]/5bh[8:1],,,,4bh[8:1]/7bh[8:1],,,,8bh[8:1]/3bh[8:1],,,,1bh[8:1]/2bh[8:1],,,,1b,1b,1b,1b,1b,,1b,,1bw5[8:1],,,,1b,,,,
{16}3/7,,4-2[8:1],6,5,,4/8,,7-5[8:1],8,6,,7/2,,1,,
{16}3/8,,2[8:1],7,1,,2/5h[8:1],,
{24}1,2,3,4,5,6,2x,3,4,5,6,7,
{16}8/3,,7-1[8:1],5,6,,7/4,,2-4[8:1],8,1,,2/5,,6,,
{16}7/3,,4,5,3,,4h[8:1]/7,,
{24}8,7,6,5,4,3,7x,6,5,4,3,2,
{4}1xb-5[8:1]/6,1/7-4[8:1],7/2-6[8:1],2/8,
{4}7h[4:1]/5-3[8:1],5,6h[4:1]/2-4[8:1],2,
{8}6h[8:1]/5,5,
{16}3,2/4b,,7,8b/6,,1-5[8:1],8,2,7,1,,
{16}7-4[8:1],8,6,1,7,,2,,
{4}2h[4:1]/Ch[4:1],,
{16}2b,8,4,5,1,7,3b,6,1b,5,4,6,3,8,2b,7,
{16}1b,6,3,8,4b,6,2b,5,1b,7,3,4,1,8,4,7,
{8}2xb-5[8:1]/6xb-1[8:1],2xb/6xb,2xb/6xb,,
{16}3bh/7bh,,,3bh/7bh,,,3bh/7bh,,
{4}4-1[8:1]/8-5[8:1],,
{16}2,3/1b,,7,8/6b,,1b/5b,,
{16}3b,5,1,8,4,6,2b,7,4b,8,1,7,2,5,3b,6,
{16}4b,7,2b,5,1b,7,3b,8,4b,6,2,1,4b,5,1,6,
{16}8,7,8,7,1,6,1,6,2,5,2,5,3,4,3,4,
{16}2x,3x,2x,3x,2x,3x,2x,3x,2,3,2,3,2,3,2,3,
{4}1bw5[8:1],1b,8bw4[8:1],8b,
{4}2b-6[8:1],2b/1b-5[8:1],1b/8b-4[8:1],8b/7bpp2qq5[4:6],
{1}7b/6bh[4:6],
{4},,
{8},4,4/7,7,
{8}2-6[12:1]/8,1,2/8,7,7-3[8:1]/1,8,1/7,2,
{8}1>4[8:1],5,1<6[8:1],5,1>4[8:1],5,1,5,
{8}7-3[12:1]/1,8,7/1,2,2-6[8:1]/8,1,8/2,7,
{8}8<5[8:1],4,8>3[8:1],4,8<5[8:1],4,8,4,
{4}4-8[8:1],4/5-1[8:1],5/3-8[8:1],3/6,
{8}1/4,2/5,3/6,4/7,5/8h[4:6],,
{4},,,,,
{16}4,3,2,1,8,7,6,5,
{16}4/8,1,2,3,4/8,1/5,2/6,3/7,
{16}8/4,5,6,7,
{16}4/8,5,6,7,
{24}2,3,4/8,7,6/1,2,3/7,6,5/2,3,4/8,7,
{24}6,5,4,3,2,1,
{24}8/4,7/3,2/6,5/1,,,
{4},
{16}1-5[12:1],5,3,7,1,
