&title=X.U.
&artist=SawanoHiroyuki
&first=0
&des=NPC
&lv_5=13
&inote_5=(127){1},{8},,,,,,,5,
{16}3,4,2h[8:1],,4,3,,6h[8:1],,5,7h[8:1],,5,6,,2h[8:1],
{16},4,3h[8:1],,4,2,,7h[8:1],,5,6h[8:1],,5-2[8:1],7,,,
{16}3s7[4:1]/5,,,,,,8-4[8:1],,,,8,,3,,1-5[8:1]/4,,
{16},,,,,,6,,8,,4-6<7v2>3-5[16:14],,,B5/B4/E5,,,
{16},,,,,,,,,,,,,,,,
{16}1-3[12:1],,,,4v6[8:1],,,,7-1[12:1],,,,2v4[8:1],,,,
{16}5-7[12:1],,,,2v8[8:1],,,,2-4[12:1]/7-5[12:1],,,,27,,,,
{16}3,4,2h[8:1],,4,3,,6,6,5,7h[8:1],,5,6,,2,
{16}2,4,3h[8:1],,4,2,,7,7,5,6h[8:1],,5,7,,,
{16}3-1[12:1],,,,5v3[8:1],,,,7-5[12:1],,,,1v7[8:1],,,,
{16}3-1[12:1],,,,5v3[8:1],,,,7-5[12:1]*-1[12:1],,,,7,,,,
{16}3/4-7[8:1],,,,1,,,,6/5-2[8:1],,,,8,,,,
{16}3v8[8:1]/8-5[8:1],,,,38,,,,14,,3,,8/5-1[8:1],,7,,
{16}5b/6-4-2[6:1],,,,8-4[8:1],,,,1-7-5[6:1],,,,3-7[8:1],,,,
{16}4-2-8[6:1],,,,6-2[8:1]*-4[8:1],,,,6,,,,1/4-8[8:1],,,,
{16}4/3-5-7[6:1],,,,1-5[8:1],,,,8-2-4[6:1],,,,6-2[8:1],,,,
{16}5-7-1[6:1],,,,3-7[8:1]*-5[8:1],,,,3,,,,2-6[8:1]/8,,,,
{16}6-2[8:1],,,,4,,,,8-6[12:1],,3,,5-1[8:1],,3,,
{16}2-4[12:1],,2-8[12:1],,2-6[8:1],,,,,,,,7-3[8:1]/5,,,,
{16}3-7[8:1],,,,1,,,,5-7[12:1],,2,,8-4[8:1],,2,,
{16}3-1[12:1],,3-5[12:1],,3-7[8:1],,,,,,,,6,5,4,3,
{16}1bp8[4:2],,,,,,,,,,,,,,,,
{128}3qq5[4:6]*qq5[4:6],6pp4[4:6],,,,,,,{16},,,,,,,,,,,,,,,
{16},,,,,,,,,,,,,,,,
{128}8v2<1-5[4:3],7-3v5[4:3]*-3v5[4:3],,,,,,,{16},,,,,,,,,,,,,,,
{16},,,,6-8[8:1],,,,4,,,,2-5[8:1],,,,
{16}8,,,,6-2[8:1],,,,2,,,,4>1[8:1],,,,
{16}4q5<8[4:3],,,,,,,,,,,,,,,,
{16},,,,,,1h[4:1]/8-4[8:1],,,,,,,,,,
{16}1b-3<4[8:1]/4b-8[8:1],,,,1<7-5>4[6:1]/4,,,,1-5[8:1]*>2-4[8:1]/4,,,,1,,,,
{16}8-6>5[8:1]/5-1[8:1],,,,8>2-4<5[6:1]/5,,,,8-4[8:1]*<7-5[8:1]/5,,,,8,,,,
{16}1pp1[4:1]/4-7[8:1],,,,1<7-5>3[4:1]/4,,,,,,,,,,,,
{16}2b/4,,2,,5/7b,,7,,2b,4,3,6,5b,7,1,8,
{16}2bv8[8:1]/7b-5[8:1],,,,2/7-1-4[6:1],,,,5w1[8:1]/7,,,,5,,,,
{16}7v1[8:1]/2-4[8:1],,,,7/2-8-5[6:1],,,,4w8[8:1]/2,,,,4,,,,
{16}3v1-3[4:1]/7-4[8:1],,,,3-5-7-1[4:1],,,,,,,,,,,,
{16}2/4b,,3,,5b/7,,6,6,5b,7,3b,3,4b,2,6b,4,
{16}8b-6-4[6:1],,,,3-7[8:1],,,,1-3-5[6:1],,,,6-2[8:1],,,,
{16}8-5[8:1]*-3[8:1],,,,8,,,,24,,3,,5-1[8:1]/7,,6,,
{16}2>3-5[8:1]/5,,,,28,,7,,6pp5[8:3],,,,64,,3,,
{16}2pp1[8:3],,,,2,,6,,7w3[8:1],,,,7,,,,
{16}8-6-4[6:1],,,,3-7[8:1],,,,1-3-5[6:1],,,,6-2[8:1],,,,
{16}8-5[8:1]*-3[8:1],,,,8,,,,24,,3,,5-1[8:1]/7,,6,,
{16}2-4<5[8:1]/5,,,,28,,7,,6pp5[8:3],,,,64,,3,,
{16}2,,1,,84,,26,,3,7,5,8-4[8:1],2,6z2[16:15],4,8,
{1},,E
