&title=Mirrorwall
&artist=BlackY
&first=0
&des=Man in the Mirror
&lv_5=14
&inote_5=(144)
{1},
{16},,,,
,,,,
,,,1,
1,,1,,
4-7[8:1],,1-5[8:1],,
4,,1,,
8v3[16:1],8,,4,
,2,2,4,
1,,6v1[16:1],6,
,3,,2^5[8:1],
2,8,,2,
,6,7,8,
1-5[8:1],,3-8[8:1],,
1,,3,,
6^3[16:1],6,,1,
,2,2,1,
2h[8:1],,4,4h[8:1],
,5,5h[8:1],,
7,7h[8:1],,3,
3,7,4,6,
5-2[8:1],,8-4[8:1],,
5,,8,,
1v6[16:1],1,,5,
,7,7,5,
8,,3v6[16:1],3,
,6,,7,
7,5,,8,
47,36,25,14,
8h[8:1],,2,2h[8:1],
,4,4h[8:1],,
6,6h[8:1],,5h[8:1],
,6,7,8,
1h[8:1],,7,7h[8:1],
,5,5h[8:1],,
3h[8:2],,,,
{24}8h[24:1],,1h[24:1],,8h[24:1],,{16}
1pp4[4:3],,,,
,,,,
,,,,
,,,,
6pp1[4:3],,,,
,,,,
,,,,
,,,,
3pp6[4:3],,,,
,,,,
,,,,
,,,,
8b-4[8:1],,,,
,,,,
2b/4b,,,1b/8b,
,,7b/5b,,
6-8[16:1],,5,,
6,5,,1,
8-4[32:3],,1,,
8,1,,3,
3-1[16:1],,4,,
3,4,,8,
1s5[16:3],,8,,
1,,,,
7-3[32:3],,1-5[32:3],,
7,,1,,
6h[16:3],,,5h[16:3],
,,4,,
6V84[8:3]/3V15[8:3],,,,
,,,,
,,,,
3b/6b,,,,
{24}3-8[16:1]/7,6,5,4,,,{16}
3/1-5[16:1],,,7-4[16:1]/1,
,,37,,
2h[4:1],,,,
{24}5-2[16:1],6,7,8,,,{16}
5/7-4[16:1],,,1-5[16:1]/7,
,,51,,
6h[16:1],,7h[16:1],,
{24}8-4[16:1]/4,3,2,1,,,{16}8/6-2[16:1],,,5-1[16:1]/6,
,,58,,
7-3[16:1],,,,
7/2-5[16:1],,,6-1[16:1]/2,
,,64,,
{24}2b,3,4,5,6,7,
8,1,2,3,4,5,{16}
6-2[16:1]/7,,,,
6/8-4[16:1],,,1-5[16:1]/8,
,,71,,
8h[4:1],,,,
{24}4-8[16:1],73,62,51,,,{16}
4/2-6[16:1],,,12,
,1V38[16:2]*V74[16:2],1,,
,,,,
{24}1-5[16:1]/5,26,37,48,,,
{16}
1/3-7[16:1],,,4-8[16:1]/3,
,,14,,
2b,3,4,5,
6,,2,,
8,1,,7,
,5,,3,
{24}6,7,8,2,3,4,{16}
56,,7,,
6h[16:2]/5,,8,6h[16:2],
,3,6h[16:2],,
2,2,,4,
34,,2,,
3h[16:2]/4,,1,3h[16:2],
,6,3h[16:2],,
5h[16:1],,6h[16:1],,
78,,6,,
7h[16:2]/8,,5,7h[16:2],
,2,7h[16:2],,
3,3,,1,
2h[16:2]/1,,4,2h[16:2],
,7,2h[16:2],,
{24}8b,7,6,5,4,3,
2,1,8,7,6,5,{16}
34,,2,,
3h[16:2]/4,,4,3h[16:2],
2,,1/3h[16:2],,
8,1,,8,
78,,6,,
7h[16:2]/8,,8,7h[16:1],
5,7,7h[16:2],,
4h[16:2],,8h[16:2],,
3,3,1,1,
7,7,5,5,
,64,64,,
37,26,15,48,
3V58[8:3]/7V14[8:3],,,,
,,,,
,,,,
3b/7b,,,,
1,8,3,2,
4,5,7,6,
4,5,2,3,
1,8,6,7,
2,1,4,3,
5,6,8,7,
5,6,3,4,
2,1,7,8,
4,5,2,1,
6,7,3,4,
1,8,5,6,
2,3,8,7,
4,5,8,7,
3,2,5,6,
1,8,3,4,
7,6,2,2,
8,1,6,7,
5,4,2,3,
5,4,7,6,
8,1,3,2,
7,8,5,6,
4,3,1,2,
4,3,6,5,
7,8,2,1,
5v2[8:1]*v8[8:1],,46,,
5,,,,7h[16:2]/3h[16:2],,,2h[16:2]/6h[16:2],,,15,,
8bq5[8:1]/4bq1[8:1],,,,
,,,,
{32}8b,7,6,
,,,
3b,2,1,
,,,
6b,5,4,,{16}
1V35[4:2],,,,
5,,,,
6,,,,
7,,,,
8V61[4:2],,,,
4,,,,
3,,,,
2,,,,
8V25[4:2],,,,
6,,,,
7,,,,
8,,,,
1V73[4:2],,,,
4,,,,
3,,,,
2,,,,
1b,8,2,7,
3,6,4,5,
3,4,2,5,
1,6,8,7,
1,8,2,8,
3,8,4,8,
4,5,4,6,
4,7,4,8,
{32}2,3,4,5,
1,2,3,4,
7,6,5,4,
8,7,6,5,
{16}24,,,18,,,57,,
{24}45,3,2,1,8,7,
3,2,1,8,7,6,
2,1,8,7,6,5,
6,7,8,1,2,3,
{8}48,,7,,6,,5,,
3,,2,,1,,8,,
6,,5,,4,,3,,
1,,8,,{16}7h[16:3],,,6h[16:3],,,5,,
45,,,,
53,,,,
52,,,,
51,,,,
51,,1,,
61,,1,,
71,,1,,
1,8,2,1,
3,3,4,4,
5,5,6,6,
2,2,4,4,
5,5,7,7,
2,2,3,3,
4,4,5,5,
6,6,7,7,
{24}1,8,1,8,1,8,
{16}7V51[8:3]/2V48[8:3],,,,
,,,,
,,,,
2b/7b,,,,
4-7[8:1]/5,,1-5[8:1]/2,,
34,,1,,
8v3[16:1],4,,83,
,2,4,2,
15,,6v1[16:1],2,
,63,,4^1[16:2],
8<5[16:1],5p4[16:3],,84,
,,,,
1-5[8:1],,3-8[8:1]/4,,
12,,3,,
6^3[16:1],7,,86,
,2,1,2-4[16:1],
4,,5-1[32:3],2,
,8-6[16:1],5,,
6,8,,5,
5,6,5,4,
5b-2[8:1],,8-4[8:1]/7,,
65,,8,,
1v6[16:1],5,,16,
,7,5,7,
8b/4b,,3v6[16:1],7,
,38,,1>5[16:3],
5,7,,1,
5,6,7,8-6[16:1],
6b,,5-1[32:3],8,
,2-4[16:1],5,,
4b,2,,15,
,62,73,84,
5b/1b,,3,1,
2-6[8:1]*-5[8:1],1,3,,
2b,,,,
{24}8,1,8,1,8,1,{16}
{32}8,7,6,5,4,3,2,1,{16}84,,2,,
8v3[16:1],1,,83,
,{32}2,1,8,7,6,5,{16}
48,,6v1[16:1],2,
,63,,4^1[32:3],
8^5[32:3],5,,4,
8,,{32}4,3,2,1,{16}
4/8-4[8:1],,6-1[8:1]/1,,
85,,6,,
3-7[16:1],8,,37,
,{32}6,5,4,3,2-6[32:3],1,{16}
84,,5^2[32:3],2,
,1-5[32:3],5,,
6,1,,8,
{32}4,3,2,1,
8,7,6,5,{16}
8b/4b,,7,,
6,,5,,
8b/4b,,3,,
2,,1,,
8b/4b,,1,,
2,,3,,
8h[16:2]/4h[16:2],,,1h[16:2]/5h[16:2],
,,26,,
1,5,8,4,
7,3,6,2,
1h[16:2]/5h[16:2],,,8h[16:2]/4h[16:2],
,,73,,
{32}84,1,2,3,4,5,6,7,
8w4[8:1],1,2,3,4,5,6,7,
{16}8,,,,
{24}1h[24:1]/8h[24:1],,1h[24:1]/8h[24:1],,1h[24:1]/8h[24:1],,{16}
1>8[8:4]/8,,,,
,,,,
,,,,
,,{48}1b>8[8:23]/8b<1[8:23],2/7,3/6,{16}
4/5,,,,
,,,,
,,,,
,,,,
,,,,
,,,,
,,,,
,,,,
,,,,
,,,,
,,,,
,,,,
