&title=Reverse Universe
&artist=Roon Kun
&first=1.34
&des=Tails
&lv_5=14
&lv_6= ※藏
&lv_7=招
&inote_5=(185)
{8}35,,4,3,,,34,,,24,,3,4,,45,,
{8}64,,5,6,,,65,,,75,,6,5,,54,,
{8}4h[4:1]/5,,5,3h[4:1],,,2h[4:1]/4,,
{8},1h[4:1]/4,,4h[8:1],2h[4:1],,5,,
{8}5h[4:1]/4,,4,6h[4:1],,,7h[4:1]/5,,
{8},8h[4:1]/5,,,{16}57,6,5,4,3,2,1,8,
{16}7b/1,,8,,6,,1,,7,,2,,8,,3,1,
{16}3,,4,,6,,8,,1,,6,8,6,,17,,
{16}26,,3,5,4h[8:1],,6,,37,,6,4,5h[8:1],,3,,
{16}26,,3,5,3,,6,4,6,,2,7,2,,18,,
{16}2h[8:1],,1,,1h[8:1],,8,,8h[8:1],,7,,16,,7,5,
{16}6h[8:1],,5,,5h[8:1],,4,,4h[8:1],,3,,25,,2,7,
{16}1,8,1,8,2,7,2,7,3,6,3,6,4,5,4,5,
{32}4,5,6,7,8,1,2,3,4,5,6,7,8,1,2,3,4-1[8:1]/5-8[8:1],,,,,,,,4b/5b,,,,,,,,
{8}7/1-5[8:1],,1,8,8-4[8:1]/2,,8,1,
{8}2,34,5,34,2,,8-4[8:1],7,
{8}68,,1-5[8:1],2,13,2,1-5[8:1],8,
{8}7-3[8:1]/1,,7/1-4[8:1]*-6[8:1],,1b,,26,37,
{8}4/8-4[8:1],,8,1,1-5[8:1]/5,,1,8,
{8}7,56,4,56,7,,8-4[8:1],17,
{8}8,,1-5[8:1],28,1,,2/7-4[8:1],8,
{8}7/2-5[8:1],1,2/7-2[8:1],6,7/4,,2,3,
{8}4-8[8:1]/6,,4,5,5-1[8:1]/3,,5,4,
{8}3,21,8,21,3,,5-1[8:1],6,
{8}75,,4-8[8:1],3,42,3,4-8[8:1],5,
{8}6-2[8:1]/4,,6/4-1[8:1]*-7[8:1],,4b,,37,26,
{8}1/5-1[8:1],,5,4,4-8[8:1]/8,,4,5,
{8}15,2,37,6,15,,25,36,
{16}47,,4,,14,,84,,14,,84,,15,8,7,6,
{24}25,,,3,4,3,4,,,47,,,5,6,5,6,,,35,,,46,,,
{8}2b/7b,,18,7<4[8:1],,17,2<7[8:1],,
{8}24,5>2[8:1],,5/6<1[8:1],7,56,4,56,
{8}47,,18,2>5[8:1],,28,7>2[8:1],,
{8}57,4<7[8:1],,4/3>8[8:1],2,34,5,34,
{8}16,,45,6<1[8:1],,46,3<6[8:1],,
{8}13,8>3[8:1],,8/7<4[8:1],6,78,1,78,
{8}16,,45,3>8[8:1],,35,6>3[8:1],,
{8}68,1<6[8:1],,1/2>5[8:1],3,12,8,12,
{8}8,8-4[8:1],8,28,2^4[8:1],2,72,7^5[8:1],
{8}7,17,1-5[8:1],1,14,6,7,8,
{8}1,1-5[8:1],1,71,7^5[8:1],7,27,2^4[8:1],
{8}2,82,8-4[8:1],8,85,3,2,1,
{8}8,8-6[8:1],8,18,1-5[8:1],1,12,2-6[8:1],
{8}2,23,3-5[8:1],3,36,7,8,8,
{16}84,1,2,3,48,5,6,7,18,2,3,4,51,6,7,8,
{4}1h[2:1]/5,,6,2b/7b,
{12}3h[4:1]/8h[4:1],,,,,,1/2-5[8:1],,1,2,,,
{12}7-4[8:1]/8,,8,7,,1-4[8:1],8-5[8:1],,1,8,,,
{12}6h[4:1]/1h[4:1],,,,,,8/7-4[8:1],,8,7,,,
{12}2-5[8:1]/1,,1,2,,8-5[8:1],1-4[8:1],,8,1,,,
{12}3h[4:1]/8h[4:1],,,,,,1/2>5[8:1],,1,2,,,
{12}7<4[8:1]/8,,8,7,,1>4[8:1],8<5[8:1],,1,8,,,
{12}84,,,8-5[8:1]/4h[4:1],,8,8,,3,4,,4,
{12}2-4[8:1],,5,2-5[8:1],,6,2-6[8:1],,7,2-7[8:1],,8,
{12}2b/8h[4:1],,,,,,1>4[8:1]/6,,8,1-5[8:1],,,
{12}12,,4,7<4[8:1],,,7-3[8:1]/2,,8,7,,,
{12}4h[4:1]/8h[4:1],,,,,,5<8[8:1]/2,,4,5-1[8:1],,,
{12}56,,8,3>8[8:1],,,3-7[8:1]/6,,4,3,,,
{12}1h[4:1]/5h[4:1],,,,,,8<5[8:1]/3,,1,8-4[8:1],,,
{12}87,,5,2>5[8:1],,,2-6[8:1]/7,,1,2,,,
{12}47,,,1-4[8:1]/5h[4:1],,1,1,,6,5,,5,
{12}7-5[8:1],,4,7-4[8:1],,3,7-3[8:1],,2,7-2[8:1],,1,
{1}7b/1h[4:7],,
{8}8,8,8,7,6,5,4,3,
{8}2,5,3,6,4,7,5,8,
{16}8,,8,4,8,,4,,3,,7,,2,,6,,
{8}1,2,3,4,5,6,7,8,
{8}1,1,1,2,4,6,8,2,
{8}1-3[8:1]*-7[8:1],,1w5[8:1],,1b,,,,
{8}87,{16}6,5,6,,{8}2,12,3,74,6,
{8}35,2,16,7,38,37,47,56,
{8}12,{16}3,4,3,,{8}7,87,6,25,3,
{8}64,7,83,2,61,62,52,43,
{8}56,{16}7,8,7,,{8}3,43,2,61,7,
{8}28,3,47,6,25,26,16,87,
{8}43,{16}2,1,2,,{8}6,56,7,38,2,
{8}8-6[8:1]*-2[8:1],,8w4[8:1],,8b,,,,
{16}17,,8,8,8,,1h[8:1]/7,,5,,2,4,3,,7,5,
{16}6,,1,5,3,,8,4,6,,1,5,46,,37,,
{16}82,,1,1,1,,8h[8:1]/2,,4,,7,5,6,,2,4,
{16}3,,8,4,6,,1,5,3,,8,4,53,,62,,
{16}17,,8,8,8,,1,7,3,,8,2,6,,1,6,
{16}4,,8,3,5,,1,5,84,,15,,26,,37,,
{16}28,,1,1,1,,27,,4,5,3,6,2,7,1,8,
{8}1bw5[8:1],,1b,,3b/7b,,{16}84,3,2,1,
{8}58,5,75,5,25,5,15,{16}8,7,
{16}8,,65,,5,,4,,34,,1,2,1,,38,,
{16}2,,8-4[8:1],7,6h[8:1],,8,,7,,1-5[8:1],2,3h[8:1],,1,,
{16}2,,8<5[8:1],4,4,,8>3[8:1],4,4,,8-4[8:1],4,4,,8b,,
{8}2h[8:1],3h[8:1],4h[8:1],5h[8:1],6h[8:1],7h[8:1],8h[8:1],{16}7,6,
{8}5h[8:1],4h[8:1],3h[8:1],2h[8:1],1h[8:1],8h[8:1],7h[8:1],{16}2,3,
{8}4h[8:7],3,2,1,8,7,6,5,
{16}35,,,,42,,,8b/7b,8-4[8:1]/7-3[8:1],,16,,78,,,,
{8}45,4,47,4,46,4,48,{16}1,2,
{16}1,,34,,4,,5,,65,,8,7,8,,61,,
{16}7,,1-5[8:1],2,3h[8:1],,1,,2,,8-4[8:1],7,6h[8:1],,8,,
{16}7,,1>4[8:1],5,5,,1<6[8:1],5,5,,1-5[8:1],5,5,,1b,,
{16}7h[8:1],,8,,6h[8:1]/1,2,3,,7h[8:1]/2,3,4,,6h[8:1]/3,4,5,,
{16}2h[8:1],,1,,3h[8:1]/8,7,6,,2h[8:1]/7,6,5,,3h[8:1]/6,5,4,,
{16}4,3,5,4,5,3,5,2,5,1,6,1,7,1,8,1,
{24}8,7,6,5,4,3,2,1,8,7,6,5,48,1,2,3,4,5,6,7,8,1,2,3,8b/4>4[1:1]*<4[1:1],
E
&inote_6=(185)
{8}35,,,34,,,24,,,14,,,25,,36,,46,,,56,,,57,,,58,,,47,,36,,4h[4:1]/5,,,3h[4:1]/4,,,2h[4:1]/3,,,1h[4:1]/3,,,2h[8:1]/4h[8:1],,3h[8:1]/5h[8:1],,5h[4:1]/4,,,6h[4:1]/5,,,7h[4:1]/6,,,8h[4:1]/6,,,
{16}57,6,5,4,3,2,1,8,7b/1,,8,,6,,1,,7,,2,,8,,3,1,3,,4,,6,,8,,1,,6,8,6,,17,,26,,3,5,4h[8:1],,6,,37,,6,4,5h[8:1],,3,,26,,6,4,6,,4,2,4,,2,8,2,,37,,2h[8:1],,1,,1h[8:1],,8,,8h[8:1],,7,,16,,7,5,6h[8:1],,5,,5h[8:1],,4,,4h[8:1],,3,,24,,3,1,2h[8:3],,1,,8,,7,,6h[8:3],,5,,4,,3,,36,,85,,27,,14,,27,,45,,1b/8b,,,,
{8}7/1-5[8:1],,1,8,8-4[8:1]/2,,8,1,5,34,2,34,5,,8-4[8:1],7,68,,1-5[8:1],2,13,2,1-5[8:1],8,7-3[8:1]/1,,7/1-4[8:1]*-6[8:1],,1b,,26,37,4/8-4[8:1],,8,1,1-5[8:1]/5,,1,8,4,56,7,56,4,,8-4[8:1],17,8,,1-5[8:1],28,1,,2/7-4[8:1],8,7/2-5[8:1],1,2/7-2[12:1],6,7/4,,2,3,4-8[8:1]/6,,4,5,5-1[8:1]/3,,5,4,8,12,3,12,8,,5-1[8:1],6,57,,4-8[8:1],3,24,3,4-8[8:1],5,6-2[8:1]/4,,6/4-1[8:1]*-7[8:1],,4b,,37,26,1/5-1[8:1],,5,4,4-8[8:1]/8,,4,5,15,2,37,8,15,,47,36,24,4,45,5,57,7,
{16}7,6,5,4,38,1,2,3,4,5,6,7,58,4,3,2,1,8,7,6,5/2b,,
{8},18,7<4[8:1],,17,2<7[8:1],,24,5>2[8:1],,5/6<1[8:1],7,56,4,56,47,,18,2>5[8:1],,28,7>2[8:1],,57,4<7[8:1],,4/3>8[8:1],2,34,5,34,16,,45,6<1[8:1],,46,3<6[8:1],,13,8>3[8:1],,8/7<4[8:1],6,78,1,78,16,,45,3>8[8:1],,35,6>3[8:1],,68,1<6[8:1],,1/2>5[8:1],3,12,8,12,7-4[16:1],8,7,1-4[16:1],8,1,7<4[16:1],8,7,1>4[16:1],8,1,7-5[16:1],1-3[16:1],7,1,8-5[16:1],1,8,2-5[16:1],1,2,8<5[16:1],1,8,2>5[16:1],1,2,8-6[16:1],2-4[16:1],8,2,8-6[16:1],1,8,1-3[16:1],8,1,8-5[16:1],1,8,1-4[16:1],8,1,8-4[16:1],1-5[16:1],8,1,
{16}6,5,7,4,8,3,1,2,8,1,7,2,6,3,5,4,
{4}6h[2:1],,3,2b/7b,
{12}3h[4:1]/8h[4:1],,,,,,1/2-5[8:1],,1,2,,,7-4[8:1]/8,,8,7,,1-4[8:1],8-5[8:1],,1,8,,,6h[4:1]/1h[4:1],,,,,,8/7-4[8:1],,8,7,,,2-5[8:1]/1,,1,2,,8-5[8:1],1-4[8:1],,8,1,,,3h[4:1]/8h[4:1],,,,,,1/2>5[8:1],,1,2,,,7<4[8:1]/8,,8,7,,1>4[8:1],8<5[8:1],,1,8,,,84,,,8-5[8:1]/4h[4:1],8,8,8,,3,4,,2-4[8:1],5,,2-5[8:1],6,,2-6[8:1],7,,2-7[8:1],8,,2b,6h[4:1],,,,,,1>4[8:1]/6,,7,1/7<4[8:1],,,2>5[8:1]/7,,2,2/8<5[8:1],,,8>3[8:1],,8,8,,,4h[4:1]/8h[4:1],,,,,,8<5[8:1]/3,,2,8/2>5[8:1],,,7<4[8:1]/2,,7,7/1>4[8:1],,,1<6[8:1],,1,1,,,1h[4:1]/5h[4:1],,,,,,4>1[8:1]/7,,6,4/6<1[8:1],,,3>8[8:1]/6,,3,3/5<8[8:1],,,5>2[8:1],,5,5,,,15,,,1-4[8:1]/5h[4:1],1,1,1,,6,5,,7-5[8:1],4,,7-4[8:1],3,,7-3[8:1],2,,7-2[8:1],1,,7b,
{4}3h[4:1],,4h[4:1],,5h[4:1],,6h[4:1],,7h[4:1],,8h[4:1],,1h[4:1],,2h[4:1],,1,8,7,6,5,4,3,2,
{8}1,8,7,6,5,4,3,2,1-3[8:1]*-7[8:1],,1w5[8:1],,1b,,,,
87,{16}6,5,6,,{8}2,12,3,74,6,35,2,16,7,38,37,47,56,12,{16}3,4,3,,{8}7,87,6,25,3,64,7,83,2,61,62,52,43,56,{16}7,8,7,,{8}3,43,2,61,7,28,3,47,6,25,26,16,87,43,{16}2,1,2,,{8}6,56,7,38,2,8-6[8:1]*-2[8:1],,8w4[8:1],,8b,,,,17,{16}8,8,8,,{8}17,7-3[8:1],7,8-4[8:1],8,1-5[8:1],1,2-6[8:1],2,3,4,5,64,82,{16}1,1,1,,{8}82,2-6[8:1],2,1-5[8:1],1,8-4[8:1],8,7-3[8:1],7,6,5,4,35,17,{16}8,8,8,,{8}17,7q3[8:1],7,8-4[8:1],8,1-5[8:1],1,2p6[8:1],2,3,4,5,64,82,{16}1,1,1,,{8}82,46,17,35,84,1w5[8:1],,1b,,3b/7b,,
{16}84,7,6,5,{8}4/8-5[8:1],5V31[4:1],8,1v4[8:1],8,7,6,
{16}5-8[8:1],3,3,,5,,4,,2,,7,,1-4[8:1],7,7,,1,,6,,7-4[8:1],8,7,,78,,3,,2-5[8:1],1,2,,12,,6,,8<5[8:1],4,4,,8>3[8:1],4,4,,8-4[8:1],4,4,,8b,,
{8}2,3h[8:1],2,1h[8:1],2,4h[8:1],2,
{16}8,3,7,,{8}6h[8:1],7,8h[8:1],7,5h[8:1],7,
{16}1,6,2,,{8}17,86,57,46,53,24,13,82,,35,{16},8b/7b,87,,16,,
{16}15,2,3,4,{8}5/1-4[8:1],4V68[4:1],1,8v5[8:1],1,2,3,
{16}4-1[8:1],6,6,,4,,5,,7,,2,,8-5[8:1],2,2,,8,,3,,2-5[8:1],1,2,,21,,6,,7-4[8:1],8,7,,87,,3,,1>4[8:1],5,5,,1<6[8:1],5,5,,1-5[8:1],5,5,,1b,,7h[8:1],,8,,6h[8:1]/1,2,3,,7h[8:1]/2,3,4,,6h[8:1]/3,4,5,,2h[8:1],,1,,3h[8:1]/8,7,6,,2h[8:1]/7,6,5,,3h[8:1]/6,5,4,,
{8}82,31,42,53,64,75,86,17,
{24}8,7,6,5,4,3,2,1,8,7,6,5,48,1,2,3,4,5,6,7,8,1,2,3,8b/4>4[1:1]*<4[1:1],
E
&inote_7=(185)
{8}45,,6,45,,6,35,,
{8}6,25,,6,15,,14,,
{8}58,,7,58,,7,48,,
{8}7,38,,7,28,,46,,
{8}18,,2,81,,2,71,,
{8}2,61,,2,51,,58,,
{8}14,,3,14,,3,84,,
{8}3,74,,3,64,82,{16}7,8,1,2,
{8}35,,34,5,4,5,56,{16}1,8,
{8}1,7,3,8,4,{16}7,5,6,,4,3,
{16}4,,6,8,7,,8,,5,,2,1,2,,1,,
{16}4,,6,5,7,,5,6,4,5,3,4,6,5,7,,
{16}6,5,7,4,6,,1,,8,,1,,4,3,5,2,
{16}5,,2,1,2,,1,,4,,7,8,7,,1,8,
{16}1,,6,5,6,,4,,58,,16,,38,,14,,
{16}27,,8,,1,,27,,1,,8,,27,8,1,2,
{16}34,,,,45,,3,,45,,6,5,6,,4,,
{8}12,3,12,8,12,,18,2,
{8}18,,18,7,18,12,34,5,
{8}42,,48,,68,,18,2,
{8}35,,45,6,45,3,27,8,
{8}28,1,56,7,34,,45,5,
{8}56,,45,4,34,,45,6,
{8}38,2,16,7,38,,27,3,
{16}45,,,,45,,6,,45,,3,4,3,,5,,
{8}87,6,87,1,87,,81,7,
{8}81,,81,2,81,87,65,4,
{8}57,,51,,31,,81,7,
{8}64,,54,3,54,6,72,1,
{8}71,8,43,2,65,,18,1,
{16}17,,1,,16,,15,,16,,15,,{20}58,1,2,3,4,
{16}58,,6,,7,,14,,3,,2,,58,,1,2,
{8}7/3h[4:1],7,7,2/6h[4:1],2,2,5/1h[4:1],5,
{8}5,8/4h[4:1],8,8,8h[8:1]/7,7,6h[8:1]/5,5,
{8}2/6h[4:1],2,2,7/3h[4:1],7,7,4/8h[4:1],4,
{8}4,1/5h[4:1],1,1,1h[8:1]/2,2,3h[8:1]/4,4,
{8}8h[4:1]/7,7,7,6h[4:1]/1,1,1,2h[4:1]/5,5,
{8}5,4h[4:1]/3,3,3,2h[8:1]/1,1,8h[8:1]/7,7,
{8}1h[4:1]/2,2,2,3h[4:1]/8,8,8,7h[4:1]/4,4,
{8}4,5h[4:1]/6,6,6,7h[8:1]/8,8,1h[8:1]/2,2,
{8}8h[4:1]/7,6,7,7h[4:1]/6,5,6,6h[4:1]/5,4,
{8}5,5h[4:1]/4,3,4,4h[8:1]/3,2,3h[8:1]/2,1,
{8}1h[4:1]/2,3,2,2h[4:1]/3,4,3,3h[4:1]/4,5,
{8}4,4h[4:1]/5,6,5,5h[8:1]/6,7,6h[8:1]/7,8,
{8}8h[4:1]/7,6,5,7h[4:1]/6,5,4,6h[4:1]/5,4,
{8}3,5h[4:1]/4,3,2,4h[8:1]/3,1,3h[8:1]/2,8,
{16}4,5,4,6,4,5,4,7,3,6,3,7,2,6,2,8,
{4}3h[2:1],,4h[4:1],8b,
{12}4h[8:3]/8h[8:3],,,,,,48,,3,4,,,
{12}15,,6,5,,5,45,,4,3,,,
{12}5h[4:1]/1h[4:1],,,,,,15,,6,5,,8,
{12}81,,3,4,,1,18,,6,5,,8,
{12}4h[4:1]/8h[4:1],,,,,,15,,6,5,,,
{12}48,,3,4,,4,45,,5,6,,,
{12}15,,,7,,8,81,,2,2,,1,
{12}18,,7,6,,8,18,,2,3,,1,
{12}4h[8:3]/8h[8:3],,,,,,48,,3,4,,,
{12}15,,6,5,,5,45,,4,3,,,
{12}5h[4:1]/1h[4:1],,,,,,15,,6,5,,8,
{12}81,,3,4,,1,18,,6,5,,8,
{12}4h[4:1]/8h[4:1],,,,,,15,,6,5,,,
{12}48,,,4,,,1h[4:1]/5h[4:1],,,,,,
{12}15,,,7,,8,81,,2,2,,1,
{12}18,,7,6,,8,18,,2,3,,1,
{8}18,7,4,6,3,4,5,6,
{8}3,8,2,7,7,1,8,2,
{16}3,,4,5,4,,5,,3,,4,,5,,6,,
{8}3,8,2,7,6,1,7,2,
{16}6,,5,4,5,,4,,6,,5,,4,,3,,
{8}6,1,7,2,3,8,2,7,
{8}1,1,1,7,3,4,5,6,
{4}1h[8:1],2h[8:1]/8h[8:1],1h[4:1]/7h[4:1],,
{16}18,,1,1,1,,2,,18,,7,,18,,2,,
{8}36,5,35,4,46,5,36,4,
{16}81,,8,8,8,,7,,81,,2,,81,,7,,
{8}63,4,64,5,53,4,63,5,
{16}45,,4,4,4,,3,,45,,6,,45,,3,,
{8}27,8,28,1,17,8,27,1,
{16}54,,5,5,5,,6,,54,,3,,54,,6,,
{4}8h[8:1],7h[8:1]/1h[8:1],6h[4:1]/2h[4:1],,
{16}18,,1,1,18,,2,,18,,7,,18,,2,,
{8}36,5,35,4,46,5,36,4,
{16}81,,8,8,81,,7,,81,,2,,81,,7,,
{8}63,4,64,5,53,4,63,5,
{16}45,,4,4,45,,3,,45,,6,,45,,3,,
{8}27,8,28,1,17,8,27,1,
{16}54,,5,5,54,,6,,54,,3,,54,,6,,
{4}7h[8:1]/4h[8:1],6h[8:1]/3h[8:1],5h[4:1]/2h[4:1],,
{16}8,,2,1,2,,8,,7,,6,,5,,7,4,
{16}7,,8,,7,,6,,5,,3,4,3,,2,,
{16}5,,2,1,2,,1,,4,,7,8,7,,8,,
{16}1,,3,4,3,,5,4,5,,5,6,5,,8,,
{16}1,,7,8,7,,1,,2,,3,,3,4,5,6,
{16}1,,6,5,6,,3,4,3,,8,7,8,,1,2,
{8}1,8,7,6,7,8,1,2,
{16}8h[4:1],,,,1,,,65,6b/5b,,12,,78,,,,
{16}8,,2,1,2,,8,,7,,6,,5,,7,4,
{16}7,,8,,7,,6,,5,,3,4,3,,2,,
{16}5,,2,1,2,,1,,4,,7,8,7,,8,,
{16}1,,3,4,3,,5,4,5,,5,6,5,,8,,
{16}1,,7,8,7,,1,,2,,3,,3,4,5,6,
{16}1,,6,5,6,,3,4,3,,8,7,8,,1,2,
{8}1,8,75,6,75,8,13,2,
{16}8,1,7,2,8,1,6,3,8,7,1,2,8,6,1,3,
{1}45,
E
