&title=MY GLORY WANTED!!!
&artist=曲: Kijibato / 歌: R.B.P. [九條 楓(CV:佳村 はるか)、逢坂 茜(CV:大空 直美)、珠洲島 有栖(CV:長縄 まりあ)]
&first=0
&des=⚠️KOL迎来大变⚠️
&lv_5=15
&inote_5=(240){1},
{4},,{24}6b/8b,7,6,5,4,3,2,1,8,7,6,5,
{16}
4bh[8:3],,,,5,,5h[8:3],,,,4,,4h[8:3],,,,
6,,6h[8:3],,,,3,,3-1[8:1],,,,4,,,,
7h[8:3],,,,5,,5h[8:3],,,,3,,3h[8:3],,,,
1,,1h[8:3],,,,7,,7-4[8:1],,,,4,,,,
3b,4,3,4,3,4,2,4,2,4,2,4,3,5,3,5,
3,5,2,4,2,4,2,4,3,4,2,5,1,6,8,7,
8b,,1b/5b,,,,3b/4b,,5b/6b,,8b/1b,,8b/1b,,2b-6b[8:1]/7b,,
,,2b/5b-8b[8:1],,,,5b/1b,,1,2,3,4,2,3,4,5,
6-1[8:1]/2v5[8:1],,,,{64}6b/2b,Cf/B7/B3,,,{16},,,4x,,3x,,82,,7/1^4[8:1],,
,,1/6-1[8:1],,,,6/5-2-6b[8:2],,,,7,,7,,,,
8,1,8,1,6,5,6,5,8,1,8,1,4,3,4,3,
7,5,7,5,6,5,6,5,8,1,2,3,4,5,6,7,
8x-5[8:1]*-3[8:1],8x,8x,8x,{64}8bx,B6/Cf/B2,,,{16},,,2x,,1x,,87,,6-1[8:1]/1,,
6,,2-6[8:1],,2,,7,,7,8,1,2,3,4,5,6,
{12}7x/1x,1,4,3,,8x/2x,2,6,5,7,1,,
7x/1x,1,4,3,8,5-3-6-2b[8:4],6,1,,,,,,,A2f,,,,,,,,,,
{16},,,4h[8:4],,,,,,,,5,,,,7b<3[8:4]/1b,
,,,,,,,,,,,,,,,2h[8:6],
,,,,,,,4,,,,8bqq1[8:5],,,,,
,,,,,,,,,,,5h[8:4],,,,,
,,,6,,,,8bV61[8:4]/2bV41[8:4],,,,,,,,,
,,,,,,,2h[8:4],,,,4,,,,6,
5,6,5,
(160){16}7b-4[8:1],,1,1,7,2,2,5x,3,4,1,6,4,8,72,,
68,68,,23,23,,71,71,,45,45,,8/2-6[8:1],,64,,
1b/2b,,7,7,5x,8,8,3,{10}4x/2x,4x/5x,7x/5x,8x/1x,6x/3x,
{16}2,2,5,4,4,8,1,1,6,5,5,,8/3pp1[8:2],,16,,
8b-4b[8:1]/3b,,,,8b,,2,2,{24}5,6,7,4,5,6,3,4,5,2,3,4,
{16}85,85,,63,63,,14,14,,72,72,,6-1[8:1]/5,,43,,
6b/5b,,3,3,8x,2,7,3,{22}6,4,7,3,6,4,7,3,6,4,7,
{16}3,3,5,1,1,8,3,3,6,1,1,,4s8[8:1],,6/2,,
(300){8}8b/4b,,1x-5[8:1]b,,1x,,2,2,7b,7-3[8:1],1,7x,,2-5[8:1],2,8x,
,6-1[8:1],6,1x,,2^5[8:1],8,2x,,7p3[8:1],8,7x,,1-5[8:1],1,1x,
,7-4[8:1],7,7x,1-6[8:1]*-4[8:1],,,,7x/3x,2,1,7-3[8:1]/8,,4-1[8:1]x,,
8-5[8:1],,2,3,4,{12}6,5,6,3,4,3,
(200){8}8,,7hx[8:12]/E1f,,,,E2/B2,,,,B4/E4,,,E5,,8,{24}8,7,6,5,4,3,
(240){8}2qq6[8:5],,,,,,,
7h[8:5],,,,,{16}5,4,3,2,5,6,7,8,
1b^6[8:1]b/3b^6[8:1],,,,,,,,4x/7x,,8x/3x,,1x/2x,,1/2-5[8:1],,
,,1-6[8:1]/2,,,,7h[8:2]/1,,,,8,,1,6,1,6,
2b^5[8:1],,5,,2-6[8:1],,1,,2^5[8:1],,5,,2-6[8:1],,1,,
2,,7,,7-2[8:1],8,7,,3-6[8:1],,3,,1x,,,,
1b^4[8:1]b/7b^4[8:1],,,,,,,,6x/3x,,2x/7x,,1x/8x,,1/8-5[8:1],,
,,1-4[8:1]/8,,,,1/2h[8:2],,,,6,,7,5,7,,
{6}8x/6x,6x/4x,4x/2x,1bx/7bx,7x/5x,5x/3x,
6bqq7[8:4]/2bqq3[8:4],,,,,,
{8}8v3[8:1],,2,,1-6[8:1],1,5,5-2[8:1]*-3[8:1],
,5-7[8:1]*-8[8:1],,5,,1,2,3,6-4[8:1],6,2-6[8:1],2,8-3[8:1],8,4,4^1[8:1]*-1[8:1],
,4-7[8:1]*^7[8:1],,4b,,{16}1,8,{8}2qq5[8:6],,
5b,,,6,6h[8:4],,,
,5^2[8:2],,7,7,,8,1,1,7-4[8:1],7,7x/2-5[8:1],2,1-6[8:1]/2x,1,1x/3-8[8:1],3,
3x/4b,,{16}5,2,5,2,4,3,4,3,5,2,5,2,6b^1b[8:1]*^3b[8:1],,
,,,,,,8x/2x,,7x/1x,,8x/6x,,6b-4[8:1]/8b,,
,,7-3[8:1]/6,,,,7/1h[8:2],,,,8,,7,3,7,3,
8-3[8:1],,2,,8-5[8:1],,6,,8^3[8:1],,2,,8^5[8:1],,6,,
8,,2,,3-8[8:1],4,3,,7-4[8:1],,7,,1x,,2,,
3b^8b[8:1]*^6b[8:1],,,,,,,,1x/7x,,2x/8x,,1x/3x,,3b-5[8:1]/1b,,
,,2-6[8:1]/3,,,,8h[8:2]/2,,,,1,,3,4,3,4,
(300){6}2,12,45,7,78,54,
(240){8}1b-5-7[8:4]/2b-4-8[8:4],,,,,,,,
2b^5[8:1],,1/2,,7-4[8:1],7,8,1-4[8:1]*-3[8:1],,1-7[8:1]*-6[8:1],,1,,2,3,4,
6/5-2[8:1],5,7-4[8:1],7,1-6[8:1],1,8,7^4[8:1],,7/1w5[8:1],,1b,,3,3,4,
65,65,76,67,65,,56,67,78,,78,87,67,76,78,61,52,34,34,23,32,34,,43,32,21,,21,12,32,23,21,38,47,65,65,67,67,65,,65,67,78,,{16}8,7,8,7,2,5,2,5,8,7,8,7,1b,6b,2b,5b,3,4,3,4,
2b,3,4,5,1,2,3,4,8,,8,,71,,6/2-6[8:1],,,,2/4,,
4-8[8:1],,,,4/1,,2,,3,,7^4[8:1]/4,,,,3,2,1q5[8:1],,6,7,8-3[8:1],,4,3,2,,2bx<5[8:2],,,,4x,,
4x,,,,8,,7,,61,,5b/2hb[8:2],,,,4,3,
82,,2,,6,,65,,54,,4b/3bh[8:2],,,,1,2,
73,,7,,78,,16,,52,,5b/2bh[8:2],,,,4,3,
82,,2,,71,,71,,62,,62,,3-5[8:1],,3,,
7-1[8:1],,7,,2-5[8:1],,2,,8h[8:2],,,,6,7,6,7,
5,6,5,6,4,5,4,5,3,4,3,4,2b/B8/Cf/B4,,,,,
,,,,,,,E2,,,,{8}E6,B5,B4,E4,{12}E7,E8,E1,E2,E3,E4,Ch[8:2],,,,,,A2,A3,A4,A5/E6,,A7,E7,,D1,E1,E2,E3,E4/B4,,,
E7,E5,E6,E3,E5,E4,E1,,Ch[24:5],,,,{8}8x,8x,
71,2-5[8:1],5V38[8:2],2
,,7,7,6,{6}52,47,52,{16}8/1,7,6,5,3,2,8b/1b,
,,,1,8,2,1,2,1,3,8,3,8,4,7,4,7,
{20}4b,3,2,1,8,7,6,5,4b/8b,1,2,3,4,5,6,7,8b/4b,3,2,1,8,7,6,5,4b/8b,1,2,3,4,5,6,7,8,1x,8x,7x,6x,5x,4x,3x,{16}1x,2x,1x,2x,1x,2,1,2,1,,{24}8x/2x,7,6,5,,,6x/2x,3,4,5,,,7x,7x,7x,7x,7x,7x,7x,7x,7x,7x,7x,7x,7x,,,{12}1x,,2x,,3x,,5,5,4x,,5x,,65,,43,,21,,78,,{15}7,6,5,4,3,{16}1b,,1,8,1,,2b-8[8:1]/7b-4[8:1],,
,,2-5[8:1]/7,,,,2b/7b,,,,7,8,6h[8:1],,3,4,2h[8:1],,6,4,8h[8:1],,3,5,1-5[8:1],,,,8b/1b,,6,6,6,,7,,4,4,4,4,4,,3,,
(280){12}6,5,7,3,4,2,7,8,6,2-8^7-5^4-2^1-7^6-4[8:6]b,1,3,
(240){4},,,
{16}8b,7,6,5,
(280){12}3,4,3,5,4,5,2,4,2,6,4,6,
(210){12}1x/5x,6x/2x,3x/7x,2x/6x,7x/3x,4x/8x,3x/7x,8x/4x,5x/1x,4x/8x,1x/5x,6x/2x,1/5,,7/3,,8/4,,{16}6/2,,{16}1/5,,7/3,,8/4,,6/2,,1/5,15,
(26.25){8}8bw4[8:2]/4b,,,,
(210){8},,E5,,E4,,E3,,E2,,E1,D1,,E8,D8,,
2,2,4,4,3,3,5,5,{16}4,5,4,5,4,5,4,5,4h[32:1],5h[32:1],4h[32:1],5h[32:1],4h[32:1],5h[32:1],4h[32:1],5h[32:1],
(300){6}2b,13,13,6b/5b,74,7h[8:8]/4,2,2,2,2,2,2,
(240){8}8/1>5[8:2],,5<3[8:3],,,,,,
8b-4[8:1],,1,,3-8[8:1],3,7,6-3[8:1]*-4[8:1],
,6-8[8:1]*-1[8:1],,6,,2,3,4,
7-4[8:1],7,1-5[8:1],1,8,8,73,6/2^5[8:1]*-5[8:1],
,2^7[8:1]*-7[8:1],,2b,,5,5qq1[8:5],,
8b,,,7,7h[8:4],,,,
8>4[8:3],,6,6,,5,5,4,
6-1[8:1]/4,6,5-2[8:1],5,7-4[8:1],7,8-3[8:1],8,
6bhx[8:10],,,,,,5,,
7,,1,,8b/2b,,4,,3,,7b/1b,,5,,6,,
(120)8b/2b-6[8:2],,5,5,4,4,{16}3,3,5,5,1,8,28,,3qq5[8:3],3,3,,7b,,,6,6,
,7h[8:1],,5,5,6,6,4,3h[8:1],,6,7h[8:1],,1,5,{32}2,4,2,4,3,4,3,4,{16}2b-5[8:1],,6-2[8:1],,7,,8,,1,,3-5[8:1],,6-3[8:1],,7,,8,,1,,8/2^5[8:1],,6,6,2,,1,,8,,7/1,7,4,4,53,5,{32}6/2,3,4,5,8,7,6,5,
(240){8}
4-7[8:1]/1,4,3,2-5[8:1],,2/8,7,6v1[8:1],
,6/4,3,2^5[8:1],,7/2,7,8-4[8:1],
,83,2,1,82,73,64,5/3V52[8:2],
,8,8w4[8:1],,8b,,2,2,
{16}3b/5b,,3,4,3,,2-6[8:1],,,,26,,7,,8-4[8:1],,,,
4,3,2,,2,,{12}18,,72,,63,,
{16}5b/4b,,4,,6,5,6,,24,,2,,7,5,7,,
3,4,3,4,2,5,2,5,1,6,1,6,{32}8,7,6,5,4,3,2,1,
{1}8bw4[8:4],
{16}3,4,3,,6,5,6,,
2,4,2,4,3,4,3,4,
1b,,2b/8b,,,,2b/4b,,5b/4b,,7b/5b,,8b/1b,,8b/1b-5b[8:1],,
,,7b-3b[8:1]/1b,,,,7b/2b,,2b^7b[8:1]*^5b[8:1],,,,2bpp6[8:6],,,,
,,,,,,,,,,,,,,,,
{12}E7,B7,B8,E6,B5,B4,1^6[8:1],,,4-7b[8:1]*-1b[8:1],,,
{64}4b,B6/Cf/B2,,,{16},,,8x,,8x,,71,,6/2-5[8:1],,,,2/5,,
6,,7-4-8b[8:2],,,,1,,1,,,,3,4,3,4,
1,8,1,8,5,6,5,6,1,8,1,8,2,4,3,5,
4,6,5,7,5,4,3,2,8,7,6,5,4x-1b[8:1],4x,4x,4x,
4bx/E4f,,,,7,7,8,,2,2,4,,2,6,3,5,2,6,3,5,1,7,2,6,1,7,2,6,
{12}8x,5,3,1x/2x,,1x/2x,2,6,4,8,7x/1x,,7x/1x,1,4,3,8,1,2x/6x,,2x/6x,2,8,7x/5x,,7x/5x,5,6,2,8,7x/1x,,
7x/1x,1,4,3,5x/2x,5,4,7,7x/1x,1,8,2,4,5x/3x,3,7,
5,1,3,
{24}1,8,7,6,1,8,7,6,2,3,4,5,2,3,4,5,8,7,6,5,8,1,2,3
,
8w4[8:1]b,,,,,,{32}8b,A2/B2/Cf/B6/A6/B8/B4,,,,,,,{4},,,,,,,
{16}4,4,,,,,,,,,,
,,,,,,,,,,,,,,,,
