&title=《偏愛》 ~ Shattered Memories
&artist=3R2
&first=0
&des=γθ
&lv_5=14
&des_5=γθ
&inote_5=
(170){4},{1},{4},,{8},{16}2,
1,
{2}2,2,
{4}3h[4:3],,,4,
{8}4h[8:3],,,5h[8:3],,,{4}6,
{2}6h[2:1],{4}E1,2,
2h[2:1],{8},,,,5,4,
{2}5,{64}B5,E6,,,,,,,,,,,,,,,{4}7h[4:1],
{1}8h[4:3],
B8/B7/B6/B5/B4/B3/B2/B1/Cfh[4:11],
{4},,,,,,,B7/E7/B6,
{1}1bh[2:5]/7bh[2:5],
,{4},,,{8},{16}3,
4,
{8}3,6,7/5,8,1,2/6,4,5/3,
{1}Ch[4:15],
{16},,,,,,,,,,,,B1,B8,B7,B6,
{1}B5,
{8},,,,,,,,1,
2,3,4,5/B2,6,7,8,
1,2,3,4,5/B8,6,7,8,
8,7,6,5,4/E7,3,2,{16}1,8,
{8}1,8,2/6,5,3/7,2,8/4,6,
5/8h[2:1],4,3,2,1h[4:3],8,7,6,
5,4,3,2,1/8h[4:3],1,{16}B1,B2,B3,B4,
{8}B5,6,7,1,7/2h[2:1],8,1,3,
{16},,5/3,6,2,7,1,8,{8}7/1,8/3,5/2,7/4,
{2}1b/6bh[2:1],{4}B2,4,
{2}4h[2:1],{4}B6,{8}2,6,
{4}2h[2:1],{8}7,6,{4}B5,4,
{8}2/6h[2:1],,,B1,{4}3,1,
{8}3/8h[4:3],,,3,{4}B4,5,
{2}6/2h[2:1],{8}B7/E7/B6,{16},,,,7,1,
{4}8,{8}7,7h[4:1],B2/B3/E3,B1,,3,
{4}3h[2:1],{8}7,7,{4}B7/B6,1h,
3/6h[4:3],{8}3,2,{4}B1,8,
{8}5/7h[2:1],4,3,2,{4}E1/B8/B1,7h,
6/3h[4:3],{8}2,8,{4}B7,6,
{8}1/5h[2:1],8,7,6,{4}B4/E4/B3,1h,
7/3h[2:1],{8}7,6,{4}B5,6/2,
{2}4/8h[2:1],{4}B2/E3/B3,{8}7,2,
1/5h[2:1],2,3,4,E6/B6/B5,{16},,,,7,7,
{8}7h[2:1],6,5,4,{4}B3/E3/E4,4/1,
{2}B7f/E7f/B6f/Ch[2:3],B5/B4/E5,
B2/E3/B3,E1/B8/B1,
{8}2/7h[4:1],,,1,{4}8h[4:1],4,
{2}5/2h[2:1],{4}B7/E7/B6,{8}1h[8:1],7h[8:1],
{2}1h[2:1],{4}B7,6/4,
{2}2/5h[2:1],{4}B7,{8}6h[8:1],2h[8:1],
{2}4h[2:1],{4}5h[4:1],6h[4:1],
B3/E3/B2/Ch[2:1],{8},,,,8,7/1,
{4}6b/2bh[4:1],B5,4h[2:1],B3,
2h[2:1],B1,8h[2:1],B7,
4h[4:1],{8}5,2,{4}7h[4:1],B2/B3,
2/6h[4:1],E7/B6,7/3h[4:1],B3/E3,
{8}2/6,8,7/3,1,8/4,2,1/5,7,
5/6,5,5/4,4,3/4,3,2/3,2,
{16}8,2,8,2,8,1,1,1,{24}1,8,7,1,2,3,1,8,7,1-5b[0.1765##0.1765],2,3,
{8}4/1b/Cf/B5/B1,{16},,,,,,,,,,,,7,4,
{8}5b/6bh[4:1],5,4,{16}3,4,3,4,{8}3h[8:1],{16}8,2,8,2,
{8}8h[8:1],4,4h[8:1],{16}7,6,7,6,{8}7h[8:1],B5/B4/E5,3/2,
{4}8/1h[2:1],{8}7,B7/E7/B6,{4}5h[4:1],B3/B4/E4,
{64}1/7b,B7,Cf,B3,,,,,,,,,,,,,8/2b,B2,Cf,B6,,,,,{32}8b/1b,7/2,6/3,5/4,,,,,{8}6,3/6h[8:1],{24}4,3,4,
{8}3h[4:1],5,6,{16}7,1,8,2,{8}4h[8:1],{16}5,7,6,8,
{8}1h[8:1],7,6,{16}7,3,4,2,{8}8h[8:1],{16}2,5,7,6,
{8}3h[8:1],7,B2/B3/B7/B6,6/1,{16}7,3,5,1,{8}8h[8:1],2-6[0.1765##0.1765],
{4}8/2b,{8}7-3[0.1765##0.0882],7b/5,,4h[8:1],3h[8:1],2h[8:1],
7b,6,6h[8:1],{16}4,5,4,5,{8}3h[8:1],{16}8,1,8,1,
{8}7h[8:1],5,5h[8:1],{16}4,2,7,3,{8}6h[8:1],{16}5,7,3,4,
{8}1h[8:1],7,8/6,5/3,4/2,7/1,6/4,{32}B6,C,{16}B2,
{8}1b/3b,1/3,{16}6,6,{8}6,6,5/7,7/5,{24}7,1,8,
{8}8,7,7h[8:1],{16}4,6,2,5,{8}1h[8:1],{16}8,3,6,2,
{8}4h[8:1],5,5h[8:1],{16}6,3,8,2,{8}7h[8:1],C,{16}7,8,
7,8,6,1,5,2,8,3,7,4,8,1,7,2,6,3,
{2}5h[8:3],B2/E3/B3/Cfh[2:1],
{16}1b,2,3,4,5,6,7,8,{8}1/5,{16}6,4h,,4,{8}2h[16:1],
{16}8/1,7,6,5,4,3,2,1,{8}8/4,{16}5,7h,,5,{8}3h[16:1],
{16}6/2,1,8,7,6,5,4,3,{8}2/5,{16}6,7h,,8,{8}1h[16:1],
8/1,{16}8,7,1,2,7,6,2/6,3,4,5,6,7,8,1,
2/7,6,5,3,4,7,6,2,{8}3/5,{16}8,{64}2,E3,B3,B4,,,,,{16}7,{64}1,E1,B8,B7,,,,,{16}8,
1,7,6,2,3,5,4,{8}3/2,{16}1,{64}7,E7,B6,B5,,,,,{16}2,{64}8,E1,B1,B2,,,,,{16}2,
5,3,8,4,7,2,6,7/3,2,1,8,7,6,5,4,
{8}3b/7b,1b/5b,8b/4b,6b/2b,,7/3,{16}6,2,7,4,
{24}3/8b,7,6,5,4,3,6,5,4,3,2,1,{8}8/6,{16}5,6/4,,1,{8}8/2,
{24}7/3,4,5,6,7,8,3,4,5,6,7,8,{8}1/3,{16}3,4/2,,6,{8}7/5,
{32}1/5,8,7,6,1/5,2,3,4,1/5,8,7,6,5/1,2,3,4,{8}1/5,{16}3,4/2,,6,{8}7/5,
{32}7/2,3,4,5,6,7,8,1,2/6,7,8,1,2,3,4,5,6/2,1,8,7,6,5,4,3,2/6,5,4,3,2,1,8,7,
{8}6b/2-6[8:1],2,2/8-4[8:1],8,8/2,{16}1,2/8h[8:1],,1,{8}8/2h[8:1],
7-3[8:1],7,7/1-5[8:1],1,1,{16}8,7/1h[8:1],,8,{8}1/7h[8:1],
2-6[0.1765##0.0588],2,7-3[0.1765##0.0588],7,4/2,{32}3,4,{16}5h[8:1],{32},,1,2,{8}7h[8:1],
1-5[0.1765##0.0882],1,6,{16}6,3,{8}8/2b,4b/6b,7b/1b,5b/3b,
{16}6b,4,5,3,7,1,8,2,7,7,4,4,1,1,5,5,
{24}8,7,6,1,2,3,6,5,4,3-7[0.1765##0.0588],4,5,{8}3b/8-4[0.1765##0.0588],8b/1-6[0.1765##0.0588],1b/5-2[0.1765##0.0588],1w5[0.1765##0.0588]/5b>5[0.1765##1.4118],
{64}1b/B1f/B8/B2,B7/B3/Cf,{32}B6/B4/B5f,
E
