&title=マシュマリー
&artist=MIMI
&first=0.08
&des_1=Ragna
&des_2=Ragna
&des_3=Ragna
&des_4=Ragna
&des_5=Ragna
&lv_5=13+
&des_6=Ragna
&des_7=Ragna
&des=Ragna
&wholebpm=182
&demo_seek=62.8
&demo_len=20
&inote_5=(182){8}
3,4,5,7,6,5,,2h[4:1],
,8,1,{24}8,7,6,{8}5,3,6,1,
7,8,1,3,2,1,,6h[4:1],
,2,3,4,,7,1,,
8,7,6,2,3,4,,7h[4:1],
,2,6,{24}1,2,3,{8}4,8,3,7,
4,3,2,,8,7,6,5b<4[2:1],
,,,,,,,,
3,4,3,2,3,4,5,6,
7,6,5,6,7,8,1,2,
3,5,4,6,8,7,1,8,
2,5,4,7,1,2,3,4,
7,6,7,8,7,6,5,4,
3,4,5,4,3,2,1,8,
5,6,4,5,3,1,2,8,
2,3,4,5h[4:1],,2,1,8,
6b,5,6,7,6,5,4,3,
2,3,4,3,2,1,8,7,
6,5,6,5,7,8,7,8,
4,2,7,5,8,7,6,5,
1,2,1,8,1,2,3,4,
5,4,5,6,5,4,3,2,
1,3,1,5,7,1,7,3,
5,7,5,1h[4:1],,7,6,5,
{1}4q5[8:6],6p4[8:6],2q5[8:6],8p5[8:6],
1p8[8:6],7q1[8:6],3p8[8:6],5<4[2:1],{8}
2V48[4:1],,6,6h[8:3],,,1,,
5V37[4:1],,2,2h[8:3],,,8,,
1V36[4:1],,7,7h[8:3],,,8,,
6V83[4:1],,2,2h[8:3],,,4,,
1q2[8:3],,5,5h[8:3],,,3,,
6q7[8:3],,4,4h[8:3],,,8,,
2q4[8:3],,8,8h[8:3],,,3,,
7q1[8:3],,2,2h[8:3],,,8,,
1h[4:1]/7h[4:1],,,1-7[8:1]/7-1[8:1],,,,,
6h[4:1]/4h[4:1],,,64,,3,8,,
6h[4:1]/1h[4:1],,,6-1[8:1]/1-6[8:1],,,,,
7h[4:1]/4h[4:1],,,7-4[8:1]/4-7[8:1],,,,,
2h[4:1]/6h[4:1],,,2-6[8:1]/6-2[8:1],,,,,
8h[4:1]/4h[4:1],,,8-4[8:1]/4-8[8:1],,,,,
27,,1,6,,4,5,36,
,18,,27,2b-5[8:1]/7b-4[8:1],,,,
3V15[4:1],,5V31[4:1],,8,7,6,5pp1[32:11],
,1,2,3,4-8[8:1],,,5pp1[32:11],
,1,2,3,4-8[8:1],,6,5pp1[32:11],
,1,2,3,4-8[8:1],,6,5,
4<8[16:3],,1,,2,3,4,5^8[8:1],
,,1^4[8:1],,8,7,6,5<4[16:7],
,4,4,,,,1V35[4:1],,
5v3[8:1],,7,7h[4:1],,4,5,6,
7V51[4:1],,1V75[4:1],,4,3,2,1pp5[32:11],
,5,6,7,8-4[8:1],,,1pp5[32:11],
,5,6,7,8-4[8:1],3,2,1pp5[32:11],
,5,6,7,8-4[8:1],,2,1,
8>4[16:3],,5,,6,7,8,1,
2b/7b,,,,,,,,
3h[4:1],5,5,2h[4:1],8,8,1,6,
2h[4:1],5,5,4h[4:1],8,8,3,7,
1h[4:1],5,5,4h[4:1],7,7,1,5,
3h[4:1],7,7,1h[4:1],8,8,3,5,
4h[4:1],6,6,8h[4:1],7,7,1,5,
2h[4:1],7,7,4h[4:1],1,1,3,8,
2h[4:1],6,6,8h[4:1],4,4,2,6,
3h[4:1],1,1,5h[4:1],7,7,4,6,{12}
2,4,3,7,5,6,1,4,3,8,5,6,
2,5,4,7,3,4,1,8,3,6,1,4,
2,6,5,8,4,6,1,5,3,8,5,7,
3,4,1,7,5,8,2,4,1,6,4,7,
18,,,7,4,6,2,4,1,6,5,8,
1,4,3,8,5,7,1,4,3,6,5,7,
18,,,2,7,7,3,8,8,4,1,1,
{1}5<4[2:1],
7h[2:1]/5h[2:1],6h[2:1]/1h[2:1],
7h[2:1]/3h[2:1],1h[2:1]/5h[2:1],
7h[2:1]/4h[2:1],3h[2:1]/5h[2:1],
8h[2:1]/4h[2:1],{8}45,45,36,36,27,27,1b/8b,,
2-5[8:1]/7-4[8:1],,2b/7b,,6V84[4:1],3,2,1pp6[32:11],
,5,6,7,8v3[8:1],,,1pp6[32:11],
,5,6,7,8v3[8:1],,2,1pp6[32:11],
,5,6,7,8v3[8:1],3,2,1,
8>4[16:3],,5,,6,7,8,1pp1[4:1],,,5pp8[32:11],5,,2,3,4,
5>1[16:3],,8,7,6,5,4,3,
2b/7b,,,,,,,,
3,4,3,2,3,4,5,6,
7,5,7,4,7,5,1,7,
4,6,4,6,8,7,8,7,
1,2,3,4,2,3,4,5,
7,6,7,8,7,6,5,4,
3,5,3,6,3,5,1,4,
3,2,3,2,4,5,4,5,
7,8,1,2h[4:1],,4,8,2,
7b,8,7,6,7,8,1,2,
3,1,3,8,3,7,5,3,
8,1,8,1,4,3,4,3,
5,6,7,8,2,1,8,7,
3,2,3,4,3,2,1,8,
7,1,7,2,7,1,5,8,
6,4,6,4,1,2,1,2,
3,4,5,6h[4:1],,8,1,7,
2,3,4,8,1,2,,4h[4:1],
,6,2,{24}7,6,5,{8}4,1,8,3,
5,6,7,,1,3h/8h,,5b<4[16:10]/1b,
,,,,,,,,
E
