&title=Burning Flame
&artist=AJURIKA
&first=-0.002
&des=Ebenholz
&clock_count=4
&lv_5=14
&inote_5=(165){4},,,,{1}6pp1[8:5]/2pp5[8:5],
8V63[2:1]/4V27[2:1],
{16}1/5,,,4/2,,,{8}5/7,{16},4,,,{8}5/3,6/2,
1-3[8:1],7-3[8:1],1qq4b[8:3],7,1x,4x,5x,6bx,
7h[8:1],{16}5,6,{8}4,5/3,2pp4[8:1],1,{4}8/2,
{8}7h[8:1],{16}4,6,{8}3,4/2,1h[8:1],8,{4}2/7,
{8}2h[8:1],{16}4,3,{8}5,6/4,7qq5[8:1],5<6-1[8:1],{4}3,
{16}2bV46[16:3],,,1,,,{8}8b-4[8:1],,8,{4}1b,
{8}2h[8:1],{16}4,3,{8}5,4/6,7qq5[8:1],8,{4}1/7,
{8}2h[8:1],{16}5,3,{8}6,5/7,8h[8:1],1,{4}7/2,
{8}7h[8:1],{16}5,6,{8}4,3/5,2pp4[8:1],4>3-8[8:1],{4}6,
{16}7bV53[16:3],,,8,,,{8}1b-5[8:1],,1,{4}8b,
7h[8:1],{8}7h[8:1],5,{4}7v4[8:1],7/8,
1h[8:1],{8}1h[8:1],3,{4}1>4[8:1],5/1,
{8}7h[8:1],5,3h[8:1],4,5,{16}4,6,{8}5,7/8,
1,7/8,{16}6,5,,3,{8}4,{16}7,5,,,3,4,
{4}2h[8:1],{8}2h[8:1],4,{4}2v5[8:1],2/1,
8h[8:1],{8}8h[8:1],6,{4}8<4[4:1],4>8[4:1],
8<4[4:1],4s8[4:1],{32},,,,,,,,,,,,,,,,2x/8h[16:1],
3x,{16}4x,{32},,7x/1h[16:1],6x,{8}5x,{32}2x/8h[16:1],3x,{16}4x,,6,5,6,3,4,{8}3,
5/1,1,1/3-8[8:1],4,3/5,{16}6,6,,,{8}7/4,
8<5[8:1],{16}1,1,{8}8>3[8:1]*v3[8:1],1,{4}8x<5[8:1]*v5[8:1],8x,
{8}2h[4:1],4,6h[4:1],1,3h[4:1],5,7h[4:1],8,
2-5[8:1],5-1[8:1],2,7-2b[8:1],6,7,{4}3b,
{8}4/8h[16:1],8h[16:1],8h[16:1]/6-1[8:1],5,6/4,{16}3,3,,,{8}2/5,
1>4[8:1],{16}8,8,{8}1<6[8:1]*v6[8:1],8,{4}1x>4[8:1]*v4[8:1],1x,
{8}7h[4:1],5,3h[4:1],8,6h[4:1],4,2h[4:1],1,
7-4[8:1],4-8[8:1],7,2-6b[8:1],3,2,{4}8b,
1/7b-4[8:1],7/2-7[8:1],{8}2/5-8[8:1],6,{4}1/5-2[8:1],
5/7<4[8:1],7/2v5[8:1],2/8-4[8:1],{8}8/3-8[8:1],2,
{4}3/6-1[8:1],6/2q6[8:1],2/8<5[8:1],8>3[8:1],
{8}8/4-7[8:1],5,4/1-5[8:1],2,1/8-3[8:1],7,8,6,
{4}5b-8[8:1],5/2-6[8:1],{8}2/7-4[8:1],8,{4}7/3-1[8:1],
3/5<8[8:1],5/1v6[8:1],{8}1/7-3[8:1],8,7/2-5[8:1],1,
{4}2/6-8[8:1],3-6[8:1],3/1-5[8:1],1/8,
{8}7<4[8:1],6,7/3-7[8:1],2,3/8-5[8:1],1,8/2,1,
{16}8h[8:1]/4h[8:1],,,1h[8:1]/5h[8:1],,,{8}2h[8:1]/6h[8:1],{16},7h[8:1]/3h[8:1],,,8,4,8,4,
{32}8,1,2,3,4,5,6,7,{4}8b/4b,{8}4>1[8:1]/8<5[8:1],7/3,{4}8/4,
2>5[8:1],{8}2/8-3[8:1],7,{4}6/8-4-6[4:1],{8}8/4,2,
{4}3-7[8:1],{8}3/5<8[8:1],4,{4}5/1,2-6[8:1],
2/8>4[4:1],4<8[4:1],{8}1,2,3,4-8[8:1],
7,4,6,{16}1,5,2,4,8,3,7,4,{8}6,
5b-1[8:1],4,7-4[8:1],8,2V85[4:1],3,{4}5V38[4:1],
{8}7,6,5-1[8:1],2-5[8:1],5,2,8,7,
6,5,4/3,2,1/2,{16}8,1,{8}7,{16}5,6,
3,5,3,4,3,2,3,1,2,8,{24}1,2,3,4,5,6,7,8,1,
{4}2/7b<4[8:1],{8}7/1-6[8:1],2,{4}3/1-5-3[4:1],{8}1/5,7,
{4}6-2[8:1],{8}6/4>1[8:1],5,{4}4/8,7-3[8:1],
7/1<5[4:1],5>1[4:1],{8}8,7,6,5-1[8:1],
2,5,3,{16}8,4,7,5,1,6,2,5,{8}3,
4b-8[8:1],5,2-5[8:1],1,7V14[4:1],6,{4}4V61[4:1],
{8}2,3,4-8[8:1],7-4[8:1],4,7,1,2,
3,4,5/6,7,8/7,{16}1,8,{8}2,{16}4,3,
6,4,6,5,6,7,6,8,7,1,{24}8,2,8,2,8,2,8,2,8,
{8}2b,{16}2,4,{8}3,{16}6,6,{8}5-2[8:1],4,{4}3,
{8}1b,{16}1,4,{8}3,{16}7,7,{8}4-8[8:1],6,{4}5,
{8}1b,{16}6,4,{8}5,{16}2,2,4,3,5,4,{8}6,5/7,
{16}2bV46[16:3],,,5,,,{8}8b-4[8:1],,8,{4}1b,
{8}7b,{16}7,5,{8}6,{16}3,3,{8}4-7[8:1],5,{4}6,
{8}8b,{16}8,5,{8}6,{16}2,2,{8}5-1[8:1],3,{4}4,
{8}8b,{16}3,5,{8}4,{16}7,7,5,6,4,5,{8}3,4/2,
{16}7bV53[16:3],,,4,,,{8}1b-5[8:1],,1,{4}7bV13V57[8:7],
{8}7,,,,,1h[4:1],{16},,,,B7/E7/B6,
,,B3/E3/B2,,,{8}8h[8:3]/B4/B5/E5,,,{4}2<6>2[8:7],
{8}2,,,8,,8h[4:1],{16},,,,E2/B1/B2,
,,B6/E6/B5,,,{8}E8/B8/B7/4-1[8:1],,,,,{4}7/Ch[1:1],
7,6,6,
5,6,{8}7,7,1,1,
8,8/2,3,4/5,7/6,{32}1/8,2,3,4,5,6,7,8,{8}1h[2:1],
{24}E7,E6,E5,E4,E3,E2,E1,E8,E7,E6,,,{8}5<8[8:1]/1>4[8:1],2/6,{4}5/1,
{8}1b-6[8:1],{16}4,4,{8}1-5-3[4:1],2,1,{16}8,8,{8}7-3[8:1],1-5[8:1],
7,1,8,7/1,{4}2-5[8:1]/6-1[8:1],6/2,
{8}3,{16}2,8,{8}1-5[8:1],{16}7,6,{8}1-3[8:1],{16}8,7,{8}1-5[8:1],6-1[8:1],
1,6,{16}2,3,4,5,8,7,6,5,8,1,2,3,
{8}4/8b-4-6[4:1],{16}2,2,{8}8,1,2,{16}7-3[8:1],8,{8}1-5[8:1],7,
1,8<5[8:1],4,8,3,2/4,5/3,6/4,
{16}7,5,6,4,5,3,6,4,8,2,7,3,{32}4,5,6,7,8,1,2,3,
4/7,6,5,4,3,2,1,8,{8}7-3[8:1],7/1s5b[4:1],,1b,
E
