&title=ラビットホール feat. 初音ミク
&artist=DECO*27
&first=0.03
&des=Tane
&lv_5=13+
&inote_5=(173){1},
{4},,,2h[4:1],{4}4h[4:1],{16}5,4,5,4,
5,4,5,4,
5,,,,
{8}6,6,2h[16:1],2h[16:1],
8-4[8:1],1,1,,
{16}1^4[8:1],,,,
1^6[8:1],,,,
1-4[8:1],,,,
1-6[8:1],,,,
{8}1>5[4:1],,5<1[4:1],,
1-5[8:1],,5,,
{16}8^5[8:1],,,,
8^3[8:1],,,,
8-5[8:1],,,,
8-3[8:1],,,,
{8}8<4[4:1],,4>8[4:1],,
8,,4,,
{16}4^1[8:1],,,,
4^7[8:1],,,,
4-1[8:1],,,,
4-7[8:1],,,,
{8}4>8[4:1],,8<4[4:1],,
4-8[8:1],,8,,
{16}5^8[8:1],,,,
5^2[8:1],,,,
5-8[8:1],,,,
5-2[8:1],,,,
{8}5<1[4:1],,1>5[4:1],,
5,,1,,
{4}1h[1:1],,,,
{4}6h[4:3],,8,8,
{4}7h[1:1],,,,
{4}3h[4:3],,4,5,
{4}56,45,34,23,
{4}1,1,8,8,
{8}56,,18,,
3/4-7[8:1],,
,1-5[8:1],
{8},1,8,7,
6-1[8:1],5,4,,
{4}24,24,57,57,
{16}18,,3,4,3
,,6,5,6
,,3,4,
3,,3,,
{8}3^6[8:1],6,3,7,
,2,1,2,
{16}81,,6,5,6
,,3,4,3
,,6,5,
6,,6,,
{8}6^3[8:1],3,6,2,
,12,1,2,
{8}8-4[8:1],,2-5[8:1],,
6,6-1[8:1],,3,
{8}2-5[8:1],1,8,7,
6-1[8:1],5,4,3,
{8}3-1[8:1],,7-5[8:1],,
3,,,8-4[8:1],
{8},8,1,2,
3-1[8:1],4,5,6,
{4}7-5[8:1],8-4[8:1],1-3[8:1],,
{16}8,1,8,1,
8,1,8,1,
8b-4[8:1],,,,
,,,,
{16}18,,2,4,
3,,7,5,
6-8[8:1],,5-1[8:1],,
6,,5,,
{16}7,,7,5,
6,,2,4,
3-1[8:1],,4-8[8:1],,
3,,4,,
{16}1,,1,4,
3,,8,5,
6-1[8:1],,5-2[8:1],,
6,,5,,
{16}8,,8,5,
6,,1,4,
3-8[8:1],,4-7[8:1],,
3,,4,,
{16}1-5[8:1],,1,,
8,,8,,
7-4[8:1],8,7,8,
,,,,
{16}2-4[8:1],1,2,1,
,,,,
7-4[8:1],8,7,8,
,,,,
{8}3h[16:1],3h[16:1],{16}7,,7,1,
{16}8-4[8:1],1,8,,
2,,2,,
{16}3,6,3,6,45,,45,,
{8}5-7[8:1]/4-2[8:1],6/3,,,
{16}81,,7,5,
6,,2,4,
3-1[8:1],,4-7[8:1],,
3,,4,,
{16}2,,2,4,
3,,7,5,
6-8[8:1],,5-2[8:1],,
6,,5,,
{16}8,,8,5,
6,,1,4,
3-8[8:1],,4-6[8:1],,
3,,4,,
{16}1,,1,4,
3,,8,5,
6-1[8:1],,5-3[8:1],,
6,,5,,
{16}8-4[8:1],,8,,
1,,1,,
2-5[8:1],1,2,1,
,,,,
{16}7-5[8:1],8,7,8,
,,,,
2-5[8:1],1,2,1,
,,,,
{8}6h[16:1],6h[16:1],{16}2,,2,8,
{16}1-5[8:1],8,1,,
7,,7,,
{16}6,3,6,3,54,,54,,
{8}4v3[8:1]/5pp5[4:1],3-1[8:1],5^8[8:1],,
{8},,,,
2q6[8:1],,,,
{16}7^4[8:1],,,1,
7,,2,,
3^8[8:1],,4,,
5,,6,,
{8}7^4[8:1],8,1,2-4[8:1],
2-8[8:1],,,,
{16}2^5[8:1],,,8,
2,,7,,
6^1[8:1],,5,,
4,,3,,
{8}2^5[8:1],1,8,{16}7,6,
5,4,3,2,
1>7[8:3],8,7,,
{8},,8-4[8:1],,
8-3[8:1],,,,
{8}6^1[8:1],5,4,3-1[8:1],
3-5[8:1],,,,
{16}3^8[8:1],,,5,
3,,6,,
7^4[8:1],,8,,
1,,2,,
{8}3^8[8:1],4,5,6-4[8:1],
6-8[8:1],,,,
{8}3-1[8:1]/5,,,7,
1-3[8:1],7,,5-7[8:1],
{8},1-3[8:1],,7-5[8:1],
7,3,,3,
{8}2,1^3[8:1]/5,,5,
6,7-5[8:1]/3,,1,
{12}2,2,8,5,5,1,
4-1[8:1],,,
5b/4b,,,
{8}6-8[8:1],,,4,
3,2-4[8:1],,8-6[8:1],
{8},2,,2,
8,2,8h[8:1]/2h[8:1],,
{12}1,5,3,8,4,6,
1b,5b,3b,7b,4b,6b,
{12}2,6,4,7,3,5,
2,,,
1-5[8:1],,,
{8}6-8[8:1],,,2,
8-6[8:1],2,,4-2[8:1],
{8},8-6[8:1],,2-4[8:1],
2,6,,6,
{8}7,8^6[8:1]/4,,4,
3,2-4[8:1]/6,,8,
{12}7,7,1,4,4,8,
5-8[8:1],,,
4b/5b,,,
{8}3-1[8:1],,,5,
6,7-5[8:1],,1-3[8:1],
{8},7,,7,
1,7,1h[8:1]/7h[8:1],,
{12}8,4,6,1,5,3,
8b,4b,6b,2b,5b,3b,
{12}7,3,5,2,6,4,
7,,,
1-5[8:1],,,
{4}1s5[2:1],,,,
{8}1b/3b,1b/3b,,6b/8b,
6b^3[8:1]/8b,,,,
{4}1h[1:1],,4,4,
{4}7h[1:1],,5,5,
{4}2h[1:1],,3,3,
{4}5h[4:3],,6,6,
{16}1-5[8:1],1,1,,
,,,,
7-3[8:1],7,7,,
,,,,
{16}2-5[8:1],2,2,,
,,,,
2-5[8:1],2,2,,
,,,,
{8}6h[16:1],6h[16:1],{16}2,,7,1,
8,1,8,1,
7,,7,,
{16}3,6,3,6,
2,7,2,7,
1-4[8:1]/8-5[8:1],,,,
,,,,
{16}18,,1,4,
3,,6,5,
8-4[8:1],,1-3[8:1],,
8,,1,,
{16}8,,8,6,
5,,3,4,
1-3[8:1],,8-4[8:1],,
1,,8,,
{16}1,,1,5,
3,,5,4,
8-4[8:1],,1-5[8:1],,
8,,1,,
{16}8,,8,5,
6,,3,4,
8-3[8:1],,7-4[8:1],,
8,,7,,
{16}8,,8,,
78,,78,,
2-4[8:1],1,2,1,
,,,,
{16}6-8[8:1],5,6,5,
,,,,
1-5[8:1],8,1,8,
,,,,
{8}6h[16:1],6h[16:1],{16}2,,2,8,
{16}1-5[8:1],8,1,,
7,,7,,
{8}6h[16:1]/3h[16:1],6h[16:1]/3h[16:1],{16}36,,36,,
{8}4-2[8:1]/5-7[8:1],27,,,
{16}81,,8,5,
6,,3,4,
1-4[8:1],,8-5[8:1],,
1,,8,,
{16}1,,1,3,
4,,8,5,
6-8[8:1],,1-5[8:1],,
6,,1,,
{16}8,,8,4,
6,,4,5,
1-5[8:1],,8-4[8:1],,
1,,8,,
{16}1,,1,4,
3,,6,5,
1-6[8:1],,5-2[8:1],,
1,,5,,
{16}1,,1,,
21,,12,,
7-5[8:1],8,7,8,
,,,,
{16}3-1[8:1],4,3,4,
,,,,
8-4[8:1],1,8,1,
,,,,
{8}3h[16:1],3h[16:1],{16}7,,7,1,
{16}8-4[8:1],1,8,,
2,,2,,
{8}3h[16:1]/6h[16:1],3h[16:1]/6h[16:1],{16}63,,63,,
{8}4v3[8:1]/5pp5[4:1],3-1[8:1],5^8[8:1],,
{4},,7pp7[4:1],,
{4}4-1[8:1]*^1[8:1],4-7[8:1]*^7[8:1],4-1[8:1]*^1[8:1],4<8[4:1],
{8}8>4[4:1],,4,,8v1[8:1],,{8},,
{4}5-8[8:1]*^8[8:1],5-2[8:1]*^2[8:1],5-8[8:1]*^8[8:1],5>1[4:1],
{8}1<5[4:1],,5,,1v8[8:1]*v8[8:1],,{8},,
{4}4-1[8:1]*^1[8:1],4-7[8:1]*^7[8:1],4-1[8:1]*^1[8:1],4<4[2:1],
{8}8>8[2:1],,4,,8,,{8}1-5[8:1],,
{4}1>1[2:1]*<1[2:1],,,,{4}5pp5[4:1]*qq5[4:1],5z1[4:1],,,
{16}5h[16:3],,,4,
5,,6,,
6h[16:3],,,5,
6,,7,,
{8}7^4[8:1],7,3^8[8:1],3,
7v6[8:1],7,,,
{16}1h[16:3],,,8,
1,,2,,
2h[16:3],,,1,
2,,3,,
{8}3^8[8:1],3,7^4[8:1],7,
3v2[8:1]*v2[8:1],3,,,
{16}6h[16:3],,,5,
6,,4,,
3h[16:3],,,4,
3,,5,,
{8}5-8[8:1],5,1-4[8:1],1,
5-8[8:1],,1-4[8:1],,
{16}5h[16:3],,,4,
5,,6,,
4h[16:3],,,5,
4,,3,,
{8}3qq4[4:1],,38,,
6,5b-2[8:1],,5b/6b,
