&title=虚拟空间Virtual Space
&artist=sjQ音福
&first=0
&lv_5=14
&des_5=T-tc万厘米
&inote_5=
(204){4},{1},{4},,{32}1b,
2x/8x,3x/7x<2[16:55],4x/6xh[16:3],{4},,{16},,{4}1,
8,
,7h[4:1],,8h[4:1],
,,8,5,
6,7,8,8,
{24}8b,7,6,5<8[8:23],,,,,,,,,{4}2,3,
,1,2,3h[4:1],
,,2,3,
3,2,1w5[8:1],{24}1b,B1,C,B6/B5/B4,,,,,,{8}6bxh[8:5],
,,2-5[16:3],2,{4}2b,
{8},,1,2,6,5,{4}8,
{8}8/1,7<4[8:1],,,{4}1-5[16:3],7b>2[32:7],
,5h[4:1],,1,
8,1,{8}1,8,{4}1,
1,{8}1,8,1,8,{16}1,2,3,6,
7,8,2,3,4,6,7,8,2,3,4,7,8,1x,1x,1x,
1x,1x,1x,1bx,{4}Cf,{16},,,,,2/1-6-4[4:1],8,7,
,,,,{4}2-6[8:1],1,7-5-3[16:3],
8/7,2/1-7-2[4:1],1/8,6h[2:1],
{16}2,3,{8}4,{16},,,,2/1,3,{8}4,5x,6x,
{4}7x,{16}1/2x,,,2,8,7,{8}6,3-6[8:1],6-3[8:1],
3-7[8:1],7-3[32:5],,,,1,{4}2/7-3[8:1],
7/2-6[32:3],6/2,8-4[8:1]/1-3[8:1],8-6[8:1]/1-5[8:1],
1-3[8:1]/8-4[8:1],8-6[8:1]/1-5[8:1],8-4[8:1]/1-3[8:1],1/8-5[8:1],
8-6[8:1]/1-3[8:1],8-4[8:1]/1-5[8:1],8/1,{8}8,8,
{16}8,7,{8}6,5-1[16:3],4-7-2[8:1],{2}5-3[32:5],
{4}1/2,7/8-2-7[4:1],8/1,3h[2:1],
{16}7,6,{8}5,{16},,,,1/8,2,{8}3,4x,5x,
{4}6x,{16}8/1x,,,1,7,6,{8}5,2-5[8:1],5-2[8:1],
2-7[8:1],7-2[8:1],,6,6,5,{4}7-4-1[8:1],
2-6[8:1],2,5<7[8:1]/4q8[8:1],5p1[8:1]/4>2[8:1],
5<7[8:1]/4q8[8:1],5p1[8:1]/4>2[8:1],5/4,{32}A5,A6,A7,A8,A1,A2,A3,A4,
{8}A5,Ch[2:1],,,,,8bx,4bx,
{32}8,E8,B7,B6,,,,,8/4x>8[8:1],E1,B1,B2,,,,,,,,,,,,,{8}1bx,5bx,
{32}1,E2,B2,B3,,,,,1/5-1[32:3],E1,B8,B7,,,,,,,,,,,,,{8}6b/1b,1b/6b,
{16}7,8,7,8,{8}7,6/1,8/7,8/7,7x/8x,6x/1x,
2x/5x,4x/3x,1x/8x,6x/5x,4x/3x,4bh[8:1]/5bh[8:1],,5b/4b,
{16}5/4,6,{8}7,5/4,{16}4,3,2,C,,,{8}1/8b,1b/8,
{16}8,7,{8}6,8/1,{16}1,2,3,C,,,{8}1b,8b/1,
{16}8,7,{8}6,6,7,8,1,2,3,
2,1,{16}7,2,7,2,{4}7-4[16:3],{8}7b,2h[8:1],
{16},,8,1,{8}8,7/1,6/2,6/2,5b/2b,5b/2b,
5/2,{16}3,4,{8}3,2/5,5/2,5/2,6b/3b,3b/6b,
6/3,{16}5,4,{8}5,6/3,6/3,7/4,{4}7h[8:1]/4h[8:1],
{16}5,6,{8}5,7/4,7/4,7/4,6/3,5/4,6,
5/4,3,5/4,6,5/4,3,8/1,7,
8/1,2,8/1,7,8/1,2,{16}1,2,8,3,
7,4,6,5,7,8,6,1,5,2,4,3,{24}2x,3x,4x,5x,6x,7x,
8x,1x,2x,3x,4x,5x,6x,7x,8x,1x,2x,3x,4x,5x,6x,7x,8x,1x,{4}8h[1:1]/2bxh[1:1],
{1},{4},,,{24}E8,
B7,B6,E6,,,{8}E2,
E4,{16},,,,B7/1x-7-2-6-3b[0.2941##0.5882],,,,,,,,,,,,,,,,,,,,{4}1h[1:1]/7bh[1:1],
{1},{4},,,{24}E2,
B2,B3,E4,,,{8}E8,
E6,{16},,,,B2/8x-2-7-3-6b[0.2941##0.5882],,,,,,,,,,,,,,,,,,,,{4}7b/3-6-4[4:1],
7,7,7,7b/2-5-3[4:1],
7,7,7,7b/1-4-2[24:7],
7,7,7,7b/8-3-1[4:1],
7,7,7,{8}7b/1-4-6[4:1],7,
7,7,7,7,7,7,7b/2-5-1[4:1],7,
7,7,7,7,7,7,{16}1b,8,1,8,
1,8,1,8,1,8,1,8,1,8,1,8,{4}1b,
{16},,,,,,,,,,,,3,2,8/1-6[8:1],7,
6-2-4b[4:1],5,,,,,,,,,,,{8}2/1,8/2,
7,6-8-4[8:3],5,6,,2,{4}2h[4:1],
{16}5,6,{8}7,{16}2,3,{8}4,{4}1,{8}3/6-4[8:1],6,
{4}3/6,{8}3/7-5[8:1],7,{4}2/7,{8}1,1,
{16}2-4-1[4:1],3,,,{4}7x-3[8:1],7,{8}7,4-1>4[8:3],
7/4,4,7,8x-4[6:1],{4}7,{8}7,3,
{16}7,6,{8}2/5,,3,7,{24}2,,7/1b,,,,,{12}7/2b,
,7/3b,{24},7/3b,,,,{8}7/3b,{24},7/4b,,,,6/3b,,,,,,,2/5,
6,{12}7-5v8[4:1],{24},,{8}2,7,{4}2,2/7,
{24}2/7,6,{12}5-8-4[8:1],,2,5,{24},,{8}2,6,{4}2/6,
{24}2/6,5,{12}4<5<6<7[6:1],,2,4,{24},,{8}2,8-5[8:1],2,8,
2,6-1[6:1],2,6,2,5,{4}2/5,
{24}2/5,6-8-5-1[24:11],,,,,{4}2/6,2,2,
{24}2/1h[8:3],3,{12}4,,{4}4,4/8,{8}4,8-5-1-6[8:3],
3,8,{4}3,3,{16}8h[8:1]/2bh[8:1],,,6bh[8:1]/4h[8:1],
,,{8}1bh[8:1]/2h[8:1],{16},4h[8:1]/5bh[8:1],{32},,,,7bh[8:1]/8h[8:1],,,,,,,2x,,1,,2,,1,,3,
,8,,3,,8,,4,,7,,4,,7,,5,,6,,5,,6,,4,,7,,5,,6,,4,
,7,,5,,6,,4,,7,,3,,8,,2,,1,,3,,8,,1,,8,,1,,7,,1,
,7,,2,,8,,2,,8,,2,,7,,3,,6,,2,,7,,3,,6,,2,,7,,3,
,6,,2,,7,,1,,6,,2,,7,,1,,8,,1,,8,,1,,8,,2,,1,,3,
,8,,2,,1,,5,,6,,4,,7,,4,,8,,4,,8,,3,,7,,2,,6,,1,
,5,,2,,6,,3,,7,,4,,8,,3,,7,,2,,7,,3,,6,,4,,5,,4,
,6,,3,,5,,3,,6,,3,,5,,3,,6,,2,,5,,1,,6,,1,{24}2,3,,,,8,
7,{6}6>4[12:1],{96},{32}2,{96},,,,{12}6,{48},,,{16}2h[32:11],,1h[32:11],{32},,,,,,,,,,,,,2,
,1,,3,,8,,,,4,,5,,4,,5,,3,,6,,3,,6,,3,
,6,,4,,5,,3,,6,,3,,1,,2,{96},,,,{24}8,{96},{32}1,,7,,3,,4,,1,,8,,2,
,7,,3,,6,,4,,5,,3,,6,,2,,7,,2,,8,,3,,1,,2,,8,,,,7,
,1,,8,,2,,7,,1,,8,,2,3,4,,8h[8:1],,,,1,,,,,,5/6b,,,,,,4/3b,
,,,,,1/2b,,,,,{16}8/7b,{32},,,,,,,1b/8b,,,,,,3b/4b,,,,,,8b/1b,
,,,,,6b/5b,,,,,{16}5b/4b,,6b/3b,{32},,,7/3,,,,,7/3h[32:3],6,5,4,
,,,2/6h[32:3],3,4,{16}5,{32},,7/2h[32:3],6,5,4,{96},,,,,,,,,,,,,,{12}7/2,{96},,,,,{32}8,7,6,5,4,3,2,1,8,
7,6,5,4,3,2,1,8,7,6,5,4,3,2,1,8,7,6,5,4,3,2,1,8h[48:131]/Cf,{4},,{16},,,2,
,,,1,,,,,,,,2,
,,,3,,,,4,,,,4,
3,2h[8:19],,,,,,,,,,,,,,8,
,,,7,,,,6,,,,7,,,,7,
6,5h[8:9],,,,,,,,,,3,,,,,,,,,,,,4,
,,,5,,,,6,
7,8h[8:21]/1h[8:3],,,,,,,,,,,,,,1,
,,,2,,,,3,,,,4h[1:3],{1},{4},,,{16},,,8h[1:2],
{1},{4},,,{16},,,3,
2,1h[8:15],,,,,,,,,,,,,,7h[4:3],
,,,,,,,,,,,,,,,8w4[8:23],
E
