&title=Midnight Lady
&artist=Dirty Androids
&first=0
&des=Coastline Bartender
&lv_5=13+
&inote_5=(128)
{1},
{16},,,,,,,,,,,,1s5[16:13],,,,
{16},,,,,,,,,,,,,,E1`B8`C`B4`E5,,
{16},,,,,,8-5-3[16:13],,,,,,,,,,
{16},,,,,,,,E3`B2`C`B6`E7,,,,,,,,
{16}4h[1:1],,,,E7/B6,,,,,,,,E7/B6,,,,
{16}8h[2:1],,,,E7/B6,,,,2h[4:1],,,,3h[4:1],,,,
{16}4h[1:1],,,,E7/B6,,,,,,,,E7/B6,,,,
{16}8h[2:1],,,,E7/B6,,,,{24}6,5,4,3,5,4,{16}5x,4x,5x,,
{16}4/2h[8:1],,,,4/6h[8:1],,2,4,1h[8:1],,,,4h[8:1]/7h[8:1],,,,
{16}8/4h[8:1],,2,,8/4h[8:1],,6,5,4-7[32:3]/8-3[32:3],,,,48,,,,
{16}7h[8:1]/4,,,,1h[8:1]/4,,7,4,6h[8:1],,,,2h[8:1]/4h[8:1],,,,
{16}6h[8:1]/4,,2,4,3,6,5,7,4-6[32:3]*-2[32:3]/8,,,,4,,,,
{16}5/7h[8:1],,,,5/3h[8:1],,7,5,8h[8:1],,,,5h[8:1]/2h[8:1],,,,
{16}1/5h[8:1],,7,,1/5h[8:1],,3,4,5-2[32:3]/1-6[32:3],,,,51,,,,
{16}2h[8:1]/5,,,,8h[8:1]/5,,2,5,3h[8:1],,,,7h[8:1]/5h[8:1],,,,
{16}5/3h[8:1],,7,5,6,1,8,2,7x-1[32:3]/3x-1[32:3],6x/4x,5x,,7/3,,,,
{16}5h[8:1]/1b,,2,,7h[8:1]/3,,4,4,8h[8:1],,3,,2-5[8:1]/6,,,,
{16}6-2[8:1],,7,,1-6[8:1],,8,,5-1[8:1],,4,,2-5[8:1],,3,,
{16}5V38[32:7],,,,1>6b[4:1],,,,6V41b[32:7],,,,8,,,,
{16}7h[8:1],,3h[8:1],,5h[8:1],,1h[8:1],,4-8[32:3],1-3[16:1],3,8,,,,,
{16}4h[8:1]/8,,7,,2h[8:1]/6,,5,5,1h[8:1],,6,,7-4[8:1]/3,,,,
{16}3-7[8:1],,2,,8-3[8:1],,1,,4-8[8:1],,5,,7-4[8:1],,6,,
{16}4V68[32:6],,,,1<4b[32:7],,,,3V57b[32:6],,,,1,,,,
{16}2h[8:1],,6h[8:1],,8h[8:1],,4h[8:1],,8,4,1,5,2x/6x,3x/7x,4x/8x,1x/5x,
{16}2xbqq6<3b[16:14]/6xb,,,,5x,,,,,,,,5x,,,,
{16}6<3>6[16:13],,,,4x,,4h[4:1],,,,,,4x,,,,
{16}3pp1[16:9],,,,8x,,,,,,,,8x,,,,
{16}5-8[32:5],,,,1x,,3,,5-2[32:5],,,,1x,,,,
{16}7p4>5[16:13],,,,1xh[2:1],,,,,,,,,,,,
{16}3>5p4[8:6],,,,5xh[2:1],,,,,,,,,,,,
{16}6p4>5[16:13],,,,1xh[2:1],,,,,,,,,,,,
{16}3>8[48:5],,,,8x,,{24}7,6,5,{16}1,1,4,3,7,7,5,6,
{16}1-3[32:3],,,,1-4[32:3]/5b,,,,1-5[32:3]/6b,,,,1/7b,,,,
{48}1b/8b,2x/7x,3x/6x,4x/5x,,,,,,,,,
{16}3,4,2,8,4^7[48:5],,2,2,4,,3,,
{16}4/8,,2,,6,5,7,1,5h[8:1],,3,,4v2[32:3]/8v6[32:3],48,,,
{16},,,,6,5,7,1,5^2[48:5],,7,7,5,,6,,
{16}1/5h[8:1],,3xb,,5/7h[8:1],,3xb,,5v7[32:3],1v3[32:3],7,3,,,,,
{16}8xh[4:1],,,,3,4,2,8,4^7[48:5],,2,2,4,,3,,
{16}48,,2,,6,5,7,1,4xb-1b[32:3],4xb-7b[32:3],,2xb/6xb,,,,,
{16}8xw4[32:3],,,,8b,,,,3/5^2[48:5],,8,8,5,,6,,
{16}4-7[32:3]/1,,8-3[32:3],,4,,8,,7,7,5,6,4,5,3,,
{48}1b/8b,2x/7x,3x/6x,4x/5x,,,,,,,,,
{16}7,1,5,3,8v3[48:5],,2,2,8,,1,,
{16}84,,1,5,3,7,4,6,2pp4[48:5],8qq6[48:5],4,6,,,,,
{16}1xw5[32:3],,,,1b,,,,3v8[48:5],,7,7,3,,6,,
{16}15,,2,4,1,8,5,6,3xb,1,4,6xb,8,5,2xbh[8:1],,
{32}8xw4[32:3],1x,2x,3x,4x,5x,6x,7x,{16}8b,,,,26,,3,4,1,8,2bh[4:1],,
{16},,6,5,8,1,7b/2b,,3,3,4,2,7,7,5,6,
{16}3b-6[32:3]/7b-2[32:3],,,,3b/7b,,,,48,,7,5,6,1,4h[8:1],,
{16}2,2,6,6,4,4,{24}7,6,5,{16}1xb,1,4,3xb,7,7,5xb,6,
{16}1xb`B1f,,,,E7/B6,,,,24,,,3,E7/B6,,4h[8:3],,
{16},,,,E7/B6,,4-1[32:5],,,,,,E7/B6,,,,
{16}13,,,,E7/B6,,,,24,,,3,E7/B6,,4h[8:3],,
{16},,,,E7/B6,,,,4,6,,6,4,,2,2,
{16}4b,,,,E3/B3,,,,75,,,6,E3/B3,,5h[8:3],,
{16},,,,E3/B3,,5-8[32:5],,,,,,E3/B3,,6,6,
{16}4-1[32:3],,,,4-7[32:3]/5,,,,4w8[32:3]/2,,,,4,,,,
{16}26,,47,,25,,48,,7,4,5,2,{48}1b/8b,2b/7b,3b/6b,4b/5b,,,,,,,,,
{16}4^1[48:5]/2,,3x,,4^7[48:5]/6,,5x,,4-8[48:5]/8,,2x,2,4,,3x,,
{24}7h[8:1]/1,,,1x,2,3,4h[8:1]/8,,,2x,3,4,5h[8:1]/1,,,7x,6,5,4h[8:1]/8,,,8x,7,6,
{16}5h[8:1]/1^4[32:3],,8x,,7^4[48:5]/1,,8x,,7-3[48:5]/3,,1x,1,7,,8x,,
{24}2/4h[8:1],,,2x,3,4,5h[8:1]/1,,,1x,2,3,{16}4h[8:1]/8^5b[32:3],,2x-6b[32:3],,8-4b[32:3],,2x,,
{16}8b,,2,2,4,,28,,3b/7b,,6,5,8,4,6bh[4:1],,
{16},,2,4,1,8,2b/7b,,6,6,5,7,2,2,4,3,
{24}2h[8:1]/5b,,,5x,6,7,8h[8:1]/4,,,6x,7,8,1h[8:1]/5,,,3x,2,1,8h[8:1]/4,,,4x,3,2,
{16}1b/5,5,2,2,7,7,4,4,{32}7xb,6,5/1,,,,2xb,3,8w4b[32:3]/4,,,,2xb/6xb,,,,
{1}C1f,,
E
