&title=惑星ラビット
&artist=Yunomi
&first=2.89
&des=Kattobi !
&lv_5=14
&inote_5=(174)
{8}
7b/8b,5b/4b,1b/2b,5b/4b,7b/8b,5b/4b,1b/2b,C,
{16}
,,3,4,3,,,,6,5,6,,4,5,4,,
{8}
1,2,3,4,5,6,7,8,E8,,E7,,E6,,
{4}
8/1,7/2,6/3,5/4,5/4,6/3,7/2,8/1,
{16}
1,8,1,,3b-6b[85#20:1]/6b>3b[85#20:1],,,,6bV85b[85#9:1]/3bV14b[85#9:1],,,,6/3,,,,6/3,,
{8}
,,,,,,,Cf,,1b-7[300#5:1],7-2[300#5:1],2-6[300#5:1],6-3[300#5:1],3-5[300#5:1],5-1[300#5:1],,,,
{32}
8,7,6,5,,,,,,,,,1,2,3,4,,,,,8/1,7/2,6/3,5/4,,,,,
{8}
1,8,2,7,3,6,4,5,E8/E2,,E7/E3,,E6/E4,
{16}
5,6,4,7,3,8,2,1,2,,8,,3,,7,,4,,6,,5,,,,
{32}
1,2,3,4,,,,,,,,,8,7,6,5,,,,,5/4,6/3,7/2,8/1,,,,,
{8}
8-4[10:1],1-5[10:1],8<5[10:1],1>4[10:1],8,1,Chf[4:5],,,,,,,,,,,
{32}
,,,,
{8}
5/4,,B7/B6/B2/B3,,8,1,B7/B6/B2/B3,,3/4,5/4,6/5,
{16}
7-5b[5:1]-8[6:1]-4[6:1]/4-1[225#4:1]-3[5:1]>2[6:1],,,,,,,,,,,,,,,,
4q5b[8:3]<4[8:2],,4>5[350#4:3],,,,,,,,,,,,,,7/2,,8-5[10:1]/1-4[10:1],,,,8b/1b,,,,
{8}
7-4[10:1],8,7,,5-8[10:1]/4-1[10:1],,5/4,,6,3,B6/B7,2,7,2,7,2,7,B2/B3,,8h[4:3],,E8,E7,E6,E5,E4/Chf[8:5],,,1-5[10:1],,1,,
2-5[10:1],1,2,,
{32}
7x,8x,7x,8x,7x,8x,7x,8x,,,,,4x,5x,4x,5x,4x,5x,4x,5x,,,,,2x,1x,2x,1x,2x,1x,2x,1x,2x,1x,2x,1x,,,,,
{8}
4,E6,3,B6/B7,2,E8,,,5,E4,6,B3/B2,7,E2,
{32}
1x,8x,1x,8x,1x,8x,1x,8x,
{8}
,,6-1[15:1],5,6,,3-8[15:1],4,3,,7/8,5/4,1/2,2/3,3/4,4/5,5/6,6/7,7/8w4b[1:1],8b,,,,,,,,,,,,,
{32}
4,5b-8b[30:104],6h[10:7],,,,,,
{8}
,,,,4,8,3,7,2,6,5,1,8,4,8,8,1,1,Cf,,7/2,6/3,7/2,6/3,7/2,6/3,7/2,,A8f,,
{32}
5,4b-1b[30:104],3h[10:7],,,,,,
{8}
,,,,5,1,6,2,7,3,8,4,1,5,1,1,8,8,Cf,,6/3,7/2,6/3,7/2,6/3,7/2,6/3,,A1f,,
8h[1:1],E1,E6,E3,E8,E2,E7,4h[1:1],,5,5,5,5,,,
{16}
3,4,3,,
{8}
4h[8:1],2,4h[8:1],1,4h[8:1],8,4h[8:1],7,4h[8:1],6,4h[8:1],5,,Cf,
{16}
6,5,6,,
{8}
6/5,6,6/4,6,6/3,6,6/2,6,6/1,6,6/8,6,,,,Chf[1:1],,,,,,,,,,,,,,8-5[15:1]/1-4[15:1],,8/1/Cf,,
{16}
3b-6b[85#20:1]/6b>3b[85#20:1],,,,6bV85b[85#10:1]/3bV14b[85#10:1],,,,,,,,,,,,,,,,
4,5,4,5,3,6,3,6,
{8}
8h[8:7],1,5,2,6,3,7,4,,,C,,
{16}
8,1,8,1,7,2,7,2,
{32}
8,7,6,,1,2,3,,7,6,5,,2,3,4b/8b,,
{16}
7/3,6/2,1/5,2/6,3/7,4/8,,,,
{32}
,3,6,3,6,,,,,,,,,,2,7,2,7,,,,,1,8,1,8,,,,,
{8}
8h[8:1],5h[7:1],6h[7:1],1h[7:1],4h[7:1],3h[7:1],7h[4:3],2h[8:5],,,,,,
E8,E1,E2,2h[2:1],1,8,7h[2:1],,2,3,4h[8:5],,7,6,5h[8:1],,7-3[10:1],8-4[10:1],7<4[5:1],8>3b[120#15:1],7,,8b,,
1-5[10:1],2-6[10:1],1<6[5:1],2>5b[120#15:1],1,,2b,,
6/3,7/2,5/4,8/1,8,8,1,1,E8/B8,B4/E4,C,E8,E7,E6,E5,E4,E3,E2,E1/B8/B1,E7/B7/B6,B5/E5/B4,B2/B3/E3,,
8/B8,1/B1,7/B7,2/B2,6/B6,3/B3,5/B5,4/Cf,,,,,
{32},
8b/1b,7/2,6/3,5h[3:1]/4h[6:5],,,,,,,,,,,6,7,8h[1:1],,,,,,,,,,,,,,3,2,1h[2:1],,,,,,,,,,,,,,,,
7/2,6/3,5h[5:1]/4h[5:1],,,,,,3/6,7/2,8/1,,,,,,8h[5:2]/7h[4:2],,,,,,,,,,,,,1,2,3,4h[4:2]/5h[5:2],
,,,,,,,,,,,,6,7,8,1h[5:2]/2h[4:2],,,,,,,,,,,,,8,7,6,5h[9:2]/4h[9:2],,,,,,,,3,2,1,8/7,,,,,
1b/5b,2/6,3/7,8h[8:3]/4h[8:3],,,,,,,,,,,,,3b/7b,2/6,1h[11:10]/5h[5:3],,,,,,,,,,,,,,,,,,,,6,7,8h[5:1],
,,,,,,,7/2,6/3,5h[6:1]/4h[6:1],,,,,,6/3,7/2,8/1,,,,,,1-5[85#20:1]/2,,,,,,,,,,,,,,,,1/8-4[85#20:1],,,,,,,,,,,,,,,,7/8,,,,,,,,
{8}
,,,,,,
{4}
1>4[10:1]/5<8[10:1],1p5[10:1]/5p1[10:1],1>4[10:1]/5<8[10:1]/Cf,1p5[10:1]/5p1[10:1],1>4[10:1]/5<8[10:1]/Cf,1p5[10:1]/5p1[10:1],1>4[10:1]/5<8[10:1]/Cf,1/5,
3>8[10:1]/7<4[10:1],3q7[10:1]/7q3[10:1],3>8[10:1]/7<4[10:1]/Cf,3q7[10:1]/7q3[10:1],3>8[10:1]/7<4[10:1]/Cf,3q7[10:1]/7q3[10:1],3>8[10:1]/7<4[10:1]/Cf,3/7,
1b-6[10:1],6-1b[10:1]/B7f,1b-5[10:1],5-1b[10:1]/Cf,1b-4[10:1],4-1b[10:1]/B3f,1w5[10:1],Cf,
8b>3[10:1],8b<5[10:1]/A2f,8w4[10:1]/A6f,Cf,,,,,
5h[1:1]/4h[1:1],,,,,,,,6h[1:1]/3h[1:1],,,,,,,,7h[1:1]/2h[1:1],,,,,,,,8h[1:1]/1h[1:1],,,,,,,,
5h[20:1]/4h[20:1],6h[20:1]/5h[20:1],5h[20:1]/4h[20:1],4h[20:1]/3h[20:1],5h[20:1]/4h[20:1],7h[20:1]/6h[20:1],
5h[20:1]/4h[20:1],3h[20:1]/2h[20:1],5h[20:1]/4h[20:1],7h[20:1]/8h[20:1],5h[20:1]/4h[20:1],1h[20:1]/2h[20:1],
5h[20:1]/4h[20:1],8h[20:1]/1h[20:1],7h[20:1]/2h[20:1],6h[20:1]/3h[20:1],5h[20:1]/4h[20:1],
{8}
6,7,8,
{16}
1,2,3,4,5,6,7,8,1,2,3,4,5,6,7,
{32}
8,1,2,3,4,5,6,7,8,1,2,3,4,5,6,7,8/Chf[10:19],,,,,,
{4}
,,,,,,
{8}
8-4[10:1],,8b/4-7[10:1],7-2[300#5:1],2-5[300#5:1],5-8[300#5:1],8>4[300#4:1],4<8[250#4:1],,,,
{32}
,8,7,8,7,
{8}
,
{32}
,,,4,5,4,5,
{16}
,
{32}
,2,1,2,1,,,,,,
E8,B7,B6,E6,,,,,E4,B3,B2,E2,,,,,E6,B5,B4,E4,,,,,E2,B1,B8,E8,,,,,
{16}
1,5,1,6,2,3,7,4,8,5,1,2,6,1,5,8,
{8}
4,4/5,6,6/5,4,4/5,3,3/4,,
{32}
,8,7,8,7,
{8}
,
{32}
,,,4,5,4,5,
{16}
,
{32}
,2,1,2,1,,,,,,
{8}
7,5,7,2,4,2,4,5h[3:2]/4h[3:2],,,,,,
E6,E5,E4,3h[2:1],4,5,6h[2:1],,E3,E2,1h[3:2],E7,E8,8h[4:5],,,E1,B1,B2,B3,B4,E5,4h[5:6],,
E1,B8,B7,B6,B5,E5,5h[9:3],,,,3h[3:2],6h[4:7],,,,,B2/E3/B3,C,B7/B6/E7,7h[4:3],,,,,,
2-6[10:1],1-5[10:1],2>5[10:1],1<6[10:1],2,1,,8-4[10:1],7-3[10:1],8>3[10:1],7<4[10:1],8,7,Cf,,,,,
6-1[15:1],5,6,3-8[85#30:1],4,3,4,3,,
{16}
1,2,3,4,,,8,7,6,5,8/1,7/2,6/3,5/4,
{8}
,4,5,5,3,3,6,6,2-5[10:1]/6-1[10:1],,2-7[10:1]/6-3[10:1],,2/6,,
4,5,4,5,3,6,2,7,1,8,
{16}
,,B1,B2,B3,B4,,,B8,B7,B6,B5,
{32}
A8/A1,A7/A2,A6/A3,A5/A4,,,,,
{8}
5b/4b,,8b/7b,5b/4b,,1b/2b,5b/4b,7b/8b,
