&title=Horizon Blue
&artist=Nothing But Requiem
&first=0.05
&lv_5=14.4
&des_5=Richer
&inote_5=
(200){4},,,,,,{2}1h[4:1]/5h[2:1],
{4}C,8h[2:1]/4h[4:1],,C,
{2}7h[4:1]/3h[2:1],{4}C,6h[2:1]/2h[4:1],
,Cf,{8}5/4,5/4,6/3,6/3,
7/2,7/2,{16}1,8,2,7,3,6,4,5,{4}6/3-8[8:1],
{1}3b-1-5[2:1]/6bpp1[4:3],
{4},8/1,7,6,
5,3/4,2,1q4[4:3],
8/1,7,{2}6h[4:1],
{4},{8}3,4,{4}2/5,{8}1/7,6,
{4}8/2,{8}3,3,{4}3q7[8:1],3,
{8}8,8,{4}8-4[8:1],8b,5/3,
,{8}6,5,3/4,2,1,6,
7,8,{4}1p5[8:1],1,{8}3,4,
6/5,7,8,3,,8,{4}7-3[8:1],
,{8}5,4,5/3,2,8/1,7,
{4}5/6h[4:3],{8}2,3,{4}4,{8}2q6[2:1],3,
{4}2b,{2},{4}B7/B6/E7/E3/B2/B3,
,1/8h[4:1],6>2[2:1],{8}2,1,
8,7,{4}6,,{8}4/5,4/5,
{4}4/5<1[2:1],{8}1,2,3,4,{4}5,
,{8}5/3,4,2/6,2,2/6,6,
{4}2>5[8:1]/6<1[8:1],6p2[8:1]/2p6[8:1],{8},,,1/7,
5/6h[1:1],{4},{8}4,{4},3h[4:1],
,{8}8-4[8:1],3h[8:9],{4}8,{8}6,7,
8,1,{4}2,C,{8}1-5[8:1],6h[8:9],
{4}1,{8}3,2,1,8,7x,8x,
{4}1x,4/5,{8}3/E6,2/E7,{4}1/E8,
5/4,{8}6/E4,7/E3,{4}8/E2,8/1,
{8}7x/E2,3x/E7,{4}5x/E4,,5h[8:1]/4h[8:1],
1h[8:1]/7h[8:1],2h[8:1]/3h[8:1],6h[8:1]/4h[8:1],7h[8:1]/2h[8:1],
8h[8:1]/1h[8:1],6h[8:1]/2h[8:1],7h[8:1]/3h[8:1],5h[8:1]/2h[8:1],
4h[2:3]/3h[8:1],2h[8:1],1h[8:1],1h[8:1],
2h[8:1],3h[8:1],{16}5,6,7,8,1,2,3,4,
5,6,7,8,{4}1b/Cf,{2},{4}3/5-1[8:1],
5/7-3[8:1]*-4[8:1],7,6/2,
{8}8,7,{4}8,{8}1-3[8:1],8,7-1[8:1],6,
5w1[8:1],4,{4}5b,,{8}8/1-5[4:1],7,
{4}5-3[4:1],3-7[4:1],7-5[4:1],5-3[4:1],
3-1[4:1],1<3[4:5],{2}4bh[4:5],
{1},{8}3,
4,{4}3-8[8:1],3/6,{8}6,5,
{4}6-1[8:1],6/3,{8}4-2[8:1],5,6-4[8:1],7,
8w4[8:1],1,{4}8b,,{8}5/4,6/3,
1,2,{4}1p5[8:1],1/3,{8}8,7,
{4}8q4[8:1],6/8>6[4:5],{2}5bh[4:5],
{1},{4}8/1-5[8:1],
1/3-7[8:1]*-8[8:1],3,2/6,
{8}3,4,{4}3,{8}5-7[8:1],4,3-5[8:1],2,
1w5[8:1],8,{4}1b,,{8}5/4,6/3,
{4}7/2-4[4:1],4-8[4:1],8-6[4:1],6-2[4:1],
2-8[4:1],8>4[4:3],{2}5bh[8:3],
{4},{16}1,8,7,6,5,4,3,2,1,8,7,6,
{4}5/2,{8}3,4,{4}3,2/6,
{8}8,7,{4}8,{8}1-7[8:1],2,3-1[8:1],4,
5w1[8:1],6,{4}5b,,{8}8/1,7/2,
4,5,{4}4,{8}6/3,7/2,8,1,
8,7/2,3/6,4z8[1.05##0.15]/5s1[1.05##0.15],{2}5h[2:1]/4h[2:1],
{4},5/4,{16}2,3,4,5,6,7,8,1,
{4}2h[8:1]/7h[8:1],3h[8:1]/4h[8:1],8h[8:1]/1h[8:1],2-5[8:1]/6-1[8:1],
2/6,{8}8h[16:1]/4h[16:1],7h[16:1]/3h[16:1],{4}2h[8:1]/6h[8:1],5h[8:1]/4h[8:1],
7h[8:1]/1h[8:1],3h[8:1]/6h[8:1],{16}1/5,2/6,3/7,4/8,5/1,6,7,8,
{4}1h[8:1]/5h[8:1],2h[8:1]/4h[8:1],3h[8:1]/7h[8:1],8h[8:1]/2h[8:1],
1h[8:1]/4h[8:1],6h[8:1]/3h[8:1],8h[8:1]/1h[8:1],8h[8:1]/6h[8:1],
8h[8:1]/3h[8:1],8h[8:1]/2h[8:1],6h[8:1]/5h[8:1],{8}4h[16:1]/3h[16:1],3h[16:1]/2h[16:1],
{4}1h[8:1]/2h[8:1],8h[8:1]/7h[8:1],2h[8:1]/5h[8:1],7-4[8:1]/3-8[8:1],
3/7,{8}1h[16:1]/5h[16:1],2h[16:1]/6h[16:1],{4}3h[8:1]/7h[8:1],6h[8:1]/4h[8:1],
7h[8:1]/2h[8:1],8h[8:1]/4h[8:1],{16}1/5,8/4,7/3,6/2,5/1,4,3,2,
{4}1h[8:1]/5h[8:1],7h[8:1]/4h[8:1],5h[8:1]/2h[8:1],8h[8:1]/1h[8:1],
6h[8:1]/4h[8:1],5h[8:1]/3h[8:1],1h[8:1]/2h[8:1],8h[8:1]/7h[8:1],
5h[8:1]/4h[8:1],7h[2:1]/2h[2:1],{2},{4}8/1>3[8:1],
1/8,8/1,7/2>4[8:1],
7/2,{8}7/2,7,{4}6/3<5[8:1],6/3,
3/6,5/4>1[16:3],{16}8/4,7,6,5,8,7,6,5,
{4}4>2[8:1],5/4,5/4,6/3>1[8:1],
6/3,{8}6/3,6,{4}7/2<8[8:1],7/2,
7/2,{8}8,1,7,2,6,3,
5b/4b,5/4,5/4,5/4,5/4,5/4,{4}E7,
C,E3,{8}8b/1b,8/1,8/1,8/1,
8/1,8/1,{4}E3,C,E7,
{8}8/7,1/6,2/5,3/4,4/5,5/6,1/2,8/3,
7/4,6/5,6/5,6/5,{2}6/4h[4:3],
{4},C,{16}8,1,7,2,6,3,5,4,
{4}6b/3b-8[8:1],3/5-1[8:1],5/2>5[8:1],2/8-4[8:1],
8/1,{8}2/6,3/7,{4}4/8<5[8:1],8/3-8[8:1],
3/6-2[8:1],6/1h[4:1],{16}4,5,6,7,8/1,2,3,4,
{4}6b/5b-2[8:1],5/8-4[8:1],8/3-8[8:1],3/6-1[8:1],
6/2>5[8:1],2/8,1-6[8:1],3/1-4[8:1],
7/1,8-5[8:1],2/8-3[8:1],8/6,
4b/5b-1[8:1],5/3-8[8:1],3/6-2[8:1],6/1-5[8:1],
1/8,{8}7/3,6/2,{4}1/5-8[8:1],5/2-6[8:1],
2/7-2[8:1],7/4h[4:1],{16}1,8,7,6,5/4,3,2,1,
{4}7/8b-3[8:1],8/5-1[8:1],5/4>1[8:1],4b/7b-3[8:1],
7/2-5[8:1],6-1[8:1],6b/4b-8[8:1],4/7-3[8:1],
7/1>4[8:1]*<6[8:1],1b,{2},{4}4/5h[4:3],
4,4,4-1[8:1]*-7[8:1],
4b,{8}8-4[8:1],7,8/1-5[8:1],2,1/7-4[8:1],6,
7-1[8:1]/2-5[8:1],3,{4}7/2,{16}8/4,7/3,6/2,5/1,4/8,7,6,5,
{4}4-1[8:1]/8-5[8:1],8/4,{16}6/2,7/3,8/4,1/5,{4}2-8[8:1]/6-4[8:1],
2/6,{16}3/7,2/6,1/5,8/4,{4}7-2[8:1]/3-6[8:1],7/3,
8x/1x,{8}7/2,6/4,8/2,3/4,8/1,6/3,
5-8[8:1]/4-1[8:1],6/3,{4}5/4,{8}2/7,8/1,{12}6xh[8:1]/C,,3xh[8:1]/C,
,8x/C,,{8}2/1,3/8,6,5,4,7,
8,1,3/4,7/5,1/2,3/5,8/1,6/4,
8/1,8/1,7/2,7/2,6/3,6/3,8/7,8/7,
1/6,1/6,2/5,2/5,3/4,1,6/5,8,
7/2,8/1,{4}6h[2:1]/3h[2:1],{2},{64}1>5z1[4:21],
5<1z5[64:335],{1},,,,,{4},,,{16},,,{32},{4}4/5h[2:1],
E4,E2,4/5h[2:1],
E4/B4,B1/E2,5/4h[2:1],B6/E6/B5,
B7/E8/B8,{8}3,5,4,6,5,7,
{2}1h[4:1]/8h[4:1],{8}7/2,6,5/3,2,
1/7,6/3,5/4,3,{2}8/1,
{16}1,8,1,8,1,8,1,8,{32}1,2,3,4,5,6,7,8,1,2,3,4,5,6,7,8,
{8}1-4[8:1]*-6[8:1],8/2,{4}1b,{16}5<8[8:1],4,{8},{32}1b/5b>2[8:1],2,3,4,{8}5,
{32}1,8,7,6,{8}5,{16}1>4[8:1],8,{8},{32}5b/1b<6[8:1],6,7,8,{8}1,{32}5,4,3,2,{8}1,
8/5-1[8:1],6,5/3-8[8:1],2,3/7-2[8:1],6,7/5>2[8:1],4,
{32}1b/5b<8[8:1],8,7,6,{8}5,{32}1,2,3,4,{8}5,{16}1>4[8:1],1,{8},{32}5b/1b<6[8:1],6,7,8,{8}1,
{32}5,4,3,2,{8}1,5<8[8:1],5,5/3-1[8:1],3,3/7-5[8:1],7,
{4}7/4,{8}8/1,6/4,1/2,5/3,8/7,6/2,
3b/4b,3/4,2b/5b,2/5,1b/6b,1/6,{4}E8/B7/B8,
B3/B4/E4,{32}6,7,{16}8,{32}5,4,{16}3,{8}1b/2b,1/2,8b/3b,8/3,
7b/4b,7/4,{4}E6,C,E2,
{8}8h[16:1]/1h[16:1],6h[16:1]/4h[16:1],1h[16:1]/3h[16:1],7h[16:1]/8h[16:1],6h[16:1]/3h[16:1],5h[16:1]/4h[16:1],1h[16:1]/2h[16:1],7h[16:1]/5h[16:1],
4h[16:1]/2h[16:1],8h[16:1]/1h[16:1],7h[16:1]/2h[16:1],6h[16:1]/3h[16:1],E8/B7/B8,B6/E6/B5,B3/B4/E4,B1/B2/E2,
{16}A7,B7,C,B3,A3/A1,B1,C,B5,A5,{32}E7,E8,E1,E2,E3,E4,E5,E6,{16}Cf,{8},{16}3,
5,2,7,4,8,3,6,1,5,3,7,2,5,4,6,
1,7,4,6,3,7,{8}2,{32}7/1h[16:3],6,5,4,{8}3,{32}2/8h[16:3],3,4,5,{8}6,
{32}7/3,6/2,5/1,4/8,{8},{32}1b<5v8[8:5]/5b>1v4[8:5],2b/6b,3b/7b,4b/8b,{8},,,,,{1}B7/B6/E7/Cf/B2/B3/E3,
E
