&title=運命線上のアリア
&artist=森羅万象
&first=0.01
&des=Hoリnaリty
&clock_count=4
&des_5=Hoリnaリty
&des_6=mingwen
&lv_5=13
&lv_6=14
&inote_5=(185)
{4}
,,,,,,,,
{16}
E7/E6,,,,E3/E4,,,,
B6,,B5,,,,A3/D3,,
,,A6/D7,,,,A4/A5,,
E7/B7/B6,,,,E3/B2/B3,,,,
E6/E4,,,,E2/E8,,,,
B3,,B4,,,,E2/E8,,
,,E4/E6,,,,B8/B1,,
E3/B3,,B5/B4,,E7/B6,,,,
3h[4:1],,,,6,,,,
3/6,,3/6,,,,7/8,,
,,1/2,,,,4/5,,
4/5,,,,2/7,,,,
1/2,,,,7/8,,,,
4/5,,4/5,,,,1b-4-7-2-5b[8:5]/6h[8:7],,
,,,,,,,,
,,,,,,,,
{16}
4h[2:1]/6,,,,6-8[8:1],,,,
6,,,,4,,8-5[8:1],,
,,8,,2-5[8:1],,2,,
2,,,7,,,7,,
7h[1:1]/4p2[2:1],,,,,,,,
,,,,,,,,
,,2,,7x,6x,5x,4x,
2x,3x,4x,5x,,,,,
5h[2:1]/3,,,,3-1[8:1],,,,
3,,,
,5,,1-4[8:1],,
,,1,,7-4[8:1],,7,,
7,,2,,2q4[2:1],,,,
2,,,,,,,,
,,,,,,8,,
8-2-4-6-8[4:2]/3h[4:3],,,,,,,,
,,,,,,,,
{16}
,,3,,4,,3,,
5,,5,,3,,3,,
2/5,,,,3,,4,,
,,6,,5,,,,
4,,4,,6,,6,,
7/4,,,,6,,5,,
,,,,,,,,
,,5-8[8:1],,,,5,,
,,1,,1,,7,,
7<5[8:1],,,,7/3,,2,,
1-3[8:1],,,,1/7,,8-6[8:1],,
,,8,,,,1-3[8:1],,
,,1,,8-6[8:1],,1-5[8:1],,
8-4[8:1],,1-3[8:1],,8,,1,,
,,,,,,,,
2b/7b,,,,,,,,
{16}
7<5[8:1],,,,3,,2,,
1,,,2/8,,,3<5[8:1]/7,,
,,3/6,,7,,8,,
1/7,,,2/6,,,,,
,,1,,1,,7,,
7,,2,,8,,1,,
7<5[8:1],,,,1/7,,,,
7<5[8:1],,,,1/7,,,,
,,3,,4,,2,,
2,,6,,5,,7,,
7-3[8:1],,,,7,,1-5[8:1],,
,,1,,,,2/7,,
,,7-5[8:1],,8,,7,,
2-4[8:1],,1,,2,,8w4[8:1],,
,,,,,,,,
,,,,,,,,
7<3[4:1]/3,,,,7/3<7[4:1],,,,
1,,2,,3,,,,
{16}
7b-4[8:1],,,,7/1-5[8:1],,,,
1/8<5[8:1],,,,8,,2-5[8:1],,
,,2/7-3[8:1],,,,7,,
1-5[8:1],,,,1/7,,,,
7/2>5[8:1],,,,2/8-4[8:1],,,,
8,,,,2,,7/2-4[8:1],,
,,2/7,,,,7-4[8:1],,
2-5[8:1],,7,,2,,,,
7-5[8:1],,,,8-4[8:1],,,,
1-3[8:1],,,,1,,7-5[8:1],,
,,7-2[8:1],,,,7,,
4-1[8:1],,,,4,,,,
8-6[8:1],,,,1-5[8:1],,,,
2-4[8:1],,,,2,,8-6[8:1],,
,,8-4[8:1],,,,8,,
2,,,,,,,,
5b-8[8:1]/2,,,,5b-3[8:1]/2,,,,
5b/2,,,,2,,7,,
,,3,,2>5[8:2],,7,,
2/6,,,7,,,8,,
4bxq3<3b[4:5]/8,,,,,,,,
,,,,,,,,
,,,,,,,,
,,,,,,,,
7b-2[8:1]/3,,,,7b-5[8:1]/3,,,,
7b/3,,,,2,,2/7-5[8:1],,
,,3,,2,,1-3[8:1],,
4-8[8:1],,1,,4>4[4:2],,,,
4bx,,,,,,,,
,,,,,,8,,
7b-5[8:1]/3,,,,7/3,,,,
1b-3[8:1],,,,1/5,,,,
{24}
4x,,,,4,,,,
3,,,,7/5,,,,
5,,,,6,,,,
2/4,,,,4,,,,
3,,,,7/5,,,,
5,,,,6,,,,
4h[3:1],,,,6,,,,
6,,,,3h[3:1],,,,
5,,,,5,,,,
6h[3:1],,,,3,,,,
3,,,,6,,,,
4,,5,,3,,6,,
3/5,,,,3,,4,,
3,,,,4/6,,,,
6,,5,,6,,,,
1/3,,,,2,,1,,
2,,,,6/8,,,,
7,,8,,7,,,,
2/4,,,,3,,4,,
2,,,,5/7,,,,
6,,5,,7,,,,
{16}
2,,2,,7,,7,,
2/7,,1,8,1,,7,,
{16}
1-3[8:1],,,,1/7,,,,
6-8[8:1],,5,,6,,5,,
,,3-1[8:1],,4,,3,,
,,8-4[8:1],,1,,8,,
,,,,2>5[8:1],,,,
2,,6,,7,,8<5[8:1],,
,,3,,2,,1,,
7-4[8:1],,8,,7,,1-5[8:1],,
,,1,,8,,7,,
6-3[8:1],,,,6/1,,1>4[8:1],,
,,6,,7,,8,,
1-6[8:1],,,,1-4[8:1],,,,
1,,,,,,,,
6,,4,,5,,3-1[8:1],,
,,3,,5,,6,,
3,,6,,2qq5[2:1],,,,
2,,,,,,,,
,,7,,,,7<4[8:1],,
,,3,,2,,1>4[8:1],,
,,6,,7,,8,,
,,,,3h[4:1],,6,,
7,,8h[4:1],,,,3,,
,,3,,4,,2h[8:1],,
,,6,,5,,7,,
2-5[8:1],,7,,2,,7,,
1-3[8:1],,6,,1,,6,,
2-5[8:1],,7,,2,,7,,
1,,6,,1,,,,
1bhx[4:1]/6bhx[4:1],,,,,,,,
8bh[4:1]/3bh[4:1],,,,,,,,
7bv4<8b[8:10]/2bv5>1b[8:10],,,,,,,,
,,,,,,,,
,,,,,,,,
,,,,,,,,
3/6,,,,3,,5,4,
6,,5/7,,3,,2/4,,
,,4/6,,3/5,,4,6,
4,,3,5,3,,4/5,,
3/6,,3/6,,,,3b/6b,,
3b/6b,,,,3b/6b,,,,
{16}
3h[4:7],,,,E8,,,,
E7,,,,E6,,,,
B8,,,,B7,,,,
B6,,,,B5,,,,
6h[4:7],,,,E2,,,,
E3,,,,E4,,,,
B1,,,,B2,,,,
B3,,,,B4,,,,
2,,2,,7,,7,,
4,,4,,5,,5,,
3,,5,,4,,6,,
3,,5,,4,,6,,
2/7,,,,,,,,
,,,,,,,,
1/2,,,8/7,,,4/5,,
7/8,,,1/2,,,4/5,,
,,,,8-4[8:1],,,,
8/2-6[8:1],,,,2,,,,
{16}
7b-5[8:1],,,,7/4-8[8:1],,,,
4/1-3[8:1],,,,1,,6-2[8:1],,
,,6/3-5[8:1],,,,3,,
8-6[8:1],,,,1/8,,,,
7/2>5[8:1],,,,2/8-4[8:1],,,,
8,,,,2,,7/2-4[8:1],,
,,2/7,,,,7-4[8:1],,
2-5[8:1],,7,,2,,,,
7b-5[8:1],,,,7/4-8[8:1],,,,
4/1-3[8:1],,,,1,,6-2[8:1],,
,,6/1-7[8:1],,,,1,,
5-7[8:1],,,,5,,,,
8-6[8:1],,,,1-5[8:1],,,,
2-4[8:1],,,,2,,8-6[8:1],,
,,8-4[8:1],,,,8,,
2,,,,,,,,
{16}
2,,8,,1,,,,
7bp5>5b[4:4]/2,,,,7b,,2,,
,,,,,,,,
,,,,,,,,
7,,1,,8,,,,
2bq4<4b[4:4]/7,,,,2b,,7,,
,,,,,,,,
,,,,,,,,
7-5[8:1],,,,8-4[8:1],,,,
1-3[8:1],,,,1,,7-5[8:1],,
,,7-2[8:1],,,,7,,
4-2[8:1],,,,4,,,,
8-6[8:1],,,,1-5[8:1],,,,
2-4[8:1],,,,2,,8-6[8:1],,
,,8-4[8:1],,,,8,,
2,,,,,,,,
{16}
1-6[8:1],,,,1-3[8:1],,,,
1-5[8:1],,,,1,,7<5[8:1],,
,,7/3,,2,,1h[4:1],,
6,,,7,,,8,,
1bq3<3b[4:5],,,,,,,,
,,,,,,,,
,,,,,,,,
,,,,,,,,
8-3[8:1],,,,8-6[8:1],,,,
8-4[8:1],,,,8,,2>4[8:1],,
,,2/6,,7,,8h[4:1],,
3,,,2,,,1,,
8bp6>6b[4:5],,,,,,,,
,,,,,,,,
,,,,,,,,
,,,,,,,,
1-4[8:1]*-3[8:1],,,,1-6[8:1]*-7[8:1],,,,
1,,,,3,,1-3[8:1],,
,,1pp4[2:1],,7,,1,,
7,,,7,,,8,,
8bp5b[4:5]*q3b[4:5],,,,,,,,
,,,,,,,,
,,,,,,,,
,,,,,,,,
8-5[8:1]*-6[8:1],,,,8-3[8:1]*-2[8:1],,,,
8,,,,6,,8-6[8:1],,
,,8qq5[2:1],,2,,8,,
2,,2,,1-4b[2:1]*-6b[2:1],,,,
1b,,,,,,,,
,,,,,,,,
8-4[8:1],,,,8<5[8:1]*>3[8:1],,,,
8w4[8:1]b,,,,8b,,,,
,,,,,,,,
,,3x/6x,,4x/5x,,,,
3,,5,,4,,6,,
,,2,,2,,,,
3/6,,,,4,,4/5,,
,,7,,7,,,,
3,,4,,5,,6,,
3,,4,,5,,6,,
7bx-1-3-5-7>7b[4:14],,,,,,,,
,,,,,,,,
,,,,,,,,
,,,,,,,,
,,,,,,,,
,,,,,,,,
,,,,,,,,
,,,,,,,,
,,,,,,,,
,,,,,,,,
&inote_6=(185)
(185)
{1},,
{8}3h[8:2],,4qq5[8:3],,5,5,,6h[8:2],
{8},5pp4[8:3],,4,4,,B3/A3,,
{8}7h[8:2],,5p3[8:3],,3,3,,2h[8:2],
{8},4q6[8:3],,6,6,,A7/B7,,
{8}8h[8:2],,5pp3[8:3],,3,2,,1h[8:2],
{8},4qq6[8:3],,6,7,,A8/B8,,
{16}7-4[8:1],,5,,7,,3x,2x,1x,,8,,7,,6h[8:5]/C,,
{1},
{8}7-5[8:1]/5-3[8:1],,7/5-1[8:1],,2-6[8:1],,8,8-4[8:1],
{8},8/4,3,2,{16}1h[16:3],,,3h[16:3],,,5h[16:2],,
{8}7<2[8:5],,C,,,,C,,
{8}1-5[8:1],,5-7[8:1]*-3[8:1],,,,{16}2,8,2,,
{8}3-1[8:1]/1-7[8:1],,3/1-5[8:1],,6-2[8:1]/1,,4,4-8[8:1],
{8},4/7,6,5,1,2,3/4pp1[8:5],,
{8}B5/E6/B6,,,,,,,8,
{8}A2/B2,A7/B7,{16}1,2,3,4,{8}6b/5-1b[8:1]*-8[8:1],,A5f,,
{8}2>3-5<6[8:4],,B2/B3,,,,B5/B6,,
{8}7<6-4>3[8:4],,B7/B6,,,,B4/B3,,
{8}2qq5[8:4],,E1/B8/B1,,,,B6/A6,,
{8}7pp4[8:4],,E1/B1/B8,,,,B3/A3,,
{8}2,1,2,2/8,,4,6/4,,
{8}6,5,6,6/4,,8,8/2,,
{16}3/7x,,5,,2/6x,,4,3,2x/5,,6,,3,,4h[8:5]/5b,,
{4},,Cf,,
{16}1-5[8:1],,7,,1,,6,,4,,,7,,,3,,
{16}8-4[8:1],,2,,8,,3,,5,,,2h[16:3],,,,,
{8}18,7,56,4,35,2,7,1,
{4}B8/E8/A7/D7f/A6/E6/B5,C/D4/B1/E2/A2/D3f/A3/E4/B4,B8/E8/A7/D7f/A6/E6/B5,C/D4/B1/E2/A2/D3f/A3/E4/B4,
{8},65,7,8,21,3,45,6,7p3[8:1]/8,,7/1,2q6[8:1],,8/2,,7h[8:4],
{8},5,4,3,26,15,37,4bh[8:2]/8bh[8:4],
{16},,3x,2x,1xh[8:1],,2x/7x,3x/6x,4xh[4:1]/5xh[4:1],,,,,,,,
{4}E3/D3,E7/D7,{8}E4/B3,B6/B7,1>4[8:1],,
{8}1/5v2[8:1],,8<5[8:1],,8/4v7[8:1],,2>5[8:1],1,
{8}2/6-2[8:1],,7<4[8:1],8,7/3-7[8:1],,1>4[8:1],,
{8}B6,,8<5[8:1],,B3,,
{8}1q5[8:1],B7/A7,1,,8p4[8:1],A2/B2,8,,1-4[8:1],,
{8}1/5-2[8:1],,8-5[8:1],,8/4-7[8:1],,2-5[8:1],1,
{8}2/6v3[8:1],,7-4[8:1],8,7/3v6[8:1],,2-5[8:1],,
{8}E8/B8/B7,,1-6[8:1],,E4/B4/B3,,3-8[8:1],B6/B5,
{8}3,,4-7[8:1],B1/B2,4,,{16}8,1,2,3,
{8}4-2[8:1]/6b-4b[8:1],,4-8b[8:1]/6,,1-5[8:1],,7,7-3[8:1],
{8},37,2,1,{16}8h[16:3],,,6h[16:3],,,2,,
{4}8-4[4:1],4p8[4:1],8p4[4:1],4V28[4:1],
{4}8bV64[4:1],4b>1b[16:3],,{16}8x,7x,6x,5x,
{8}4-7[8:1]/2-5[8:1],,2x/4x,,8<5[8:1],,8x/5,4,
{8},3-7[8:1],B4/E5/B5,3,1-5[8:1],E8/B7/B8,1,,
{16}2hb[8:4],,,,,,6x,7x,8x,,1,,2,,3,,
{4}Cf/4h[8:4],,,,
{6}6hb[6:1],5,4/7,3h[6:1],4,2/5,
{6}6h[6:1],4,2/5,3h[6:1],8,6/1,
{6}7h[6:1],8,1/6,2h[6:1],1,3/8,
{6}7h[6:1],1,2/6,3h[6:1],{12}4,3,5,4,
{12}6hb[6:1],,4,5,4,5,3h[6:1],,5,4,6,5,
{12}7h[6:1],,5,6,3,4,2h[6:1],,4,3,6,5,
{12}8h[6:1],,5,7,3,5,1h[6:1],,4,2,6,4,
{12}8h[8:6],,,E2/D2/A2f,,,E7/B6/A6f/E6,,,E4/A4/D4f/A3,,,
{8}7p3[8:1],,7/3b,,2>5[8:1],1,8b,7>2[8:1],,6,5b,4<7[8:1],,3,2b,1v6[8:1],
{8},,7v4[8:1],,7/4,3,2,1-5[8:1],,1/5,6,7,3,6,4,5,
{8}Cf,,6,5,4/7,8,1,2/4,
{8},3,54,6,17,2,34,5,
{8}1hb[8:2]/6,,7,,8,5/7,4,3/5,
{16}2b,4,3,5,4,6,5,7,8b,6,1,7,2,8,3,1,
{8}2hb[8:2],,4,3,7h[8:2],,8,6,
{8}4,4,5,3,8h[8:2],,1,7,
{8}3,,2h[8:1],6h[8:1],4,{16}84,7,6/2b,,6,,
{8}1,2,34,5,{16}26,,26,3,4/8b,,7,,
{8}6hb[8:1],3h[8:1],5h[8:1],2h[8:1],8h[8:1],4h[8:1],6hb[8:1],1h[8:1],
{16}7b,,5,6,4,5,3,4,1b,7,5,8,2b,4,8,6,
{8}2bw6b[8:1],,,,8bw4b[8:1],,,,
{1}1bqq5[4:5]*pp5[4:5],,
{8}5-1b[8:1],,,,2-6[8:1],8-4[8:1],2b,8bv5<7v4[8:5]*v3>1v4b[8:5],
{1},
{8}6b/A4f/E4/E5,7b/A2f/E3/E2,,3b/A5f/E6/E5,2b/A7f/E7/E8,,1b<2[4:7],,
{4}6x,6x,5,5,7,7,8,8>7[4:7],
{4}2x,3x,4,4,2,1,1,3,
{8}4h[8:8],,5,5,5,5,5,5,
{16}5h[16:13],,,,6,,6,,6,,6,,6,7,8,1,
{1}2qq5[8:4]*qq6[8:4]/E1f/B8/B1,
{6}1b/8b,7/5,3/4,2b/8b,6/7,3/5h[24:10],
{16},,,,1b,,,,1/8b-4[8:1],,7h[16:1],,2b-6[8:1]/8,,3h[16:1],,
{8}2/5bp1[8:1],,7-3[8:1],,7/4q8[8:1],,1-6[8:1],1,
{8}1/5-2[8:1],,8-3[8:1],8,8/4-7[8:1],,1-5[8:1],,
{8}B7,,8-4[8:1],,B2,,2-6[8:1],B3/E4,
{8}2,,7-3[8:1],B6/E6,7,,1v6[8:1],,
{8}1/5v2[8:1],,8v3[8:1],,8/4v1[8:1],,2v7[8:1],2,
{8}2/8v5[8:1],,6v3[8:1],6,6/4v7[8:1],,2-6[8:1],,
{8}B8/E8,,7-3[8:1],,B1/E2,,1>4[8:1],B2/B3/E3,
{8}1,,8<5[8:1],E7/B6/B7,8,,{16}3,4,3,4,
{8}2b,5,46,7,58,4,36,5,
{8}14,2,37,{16}4,5,4,,6,5,6,5,6,5,
{8}7b,,82,3,54,6,27,1h[8:7]/8,
{8},E8/B8,,B7,B6,,E6/B5,,
{8}7b/8b,6,45,3,24,5,36,4>2[12:1]/7<4b[8:1],
{8},7b/4-8[8:1],,1,1-5[8:1],,1,,
{8}6,5,47,8,2,1,38,4,
{16}6b,5,7,4,5b,,3b,4,2,5,4b,,5b,4,6,3,
{8}7v4[8:1],,B3/7x,,2>5[8:1],,B5/2x,B6,
{8},7-3[8:1],B5,7,{16}2h[16:3],,,4h[16:3],,,5h[16:2],,
{8}7qq1[8:4],,E6/B5/B6,,,,B3,,
{8}2pp8[8:4],,E4/B4/B3,,,,B6,,
{8}8p3[8:1],,8x/3x,,2>5[8:1],,2x/5x,6,
{8},7-3[8:1],E6/B5/E5,7,{16}2h[16:3],,,4h[16:3],,,6h[16:2],,
{8}8<3[8:4],,E8,,E6,,E4,,
{16}E2/B2,,E1,B8,B7,,B3/E4,,B6,B5,E5,,B1/B2,,,,
{8}7b<5[8:1],5,7b-4[8:1],4,7b-3[8:1],3-5[8:1],7b,2,
{16}1b-6b[8:1],,6,,1b-5b[8:1],,5,,1b-4b[8:1],,4-2b[8:1],,1b,,5,,
{8}6<1[8:2],,1>4[8:2],,4<8[8:2],,8V24[8:2],,
{8}4V68[8:2],,8b>4b[8:2],,4b<8b[16:3],,8b,,
{8}2,,13,,2b/4,3/5b,4b/6,5/7b,
{8},28,37,46,5-3[8:1]*-7[8:1],,5x,,
{32}2,,8,,2,,8,,2,,4,,2,,4,,6,,4,,6,,4,,6,7,8,1,2,3,4,5,
{1}8bV64-8[16:11]/6-2b[16:4],
{4}2xh[8:6],,,C,6xh[8:6],,,B3,4xh[8:6],,,B7,8xh[8:6],,,1x-5b[8:1],
{1}1b<1[4:15]*V35-7-1[4:15],,,,
