&title=Serenade
&artist=natori
&first=-0.43
&des=spiderwarma
&des_5=
&lv_5=13+
&inote_5=(137){4},4h[8:7],{8},,2,2,
2-5[8:1],1x,{16}2bx/8xh[8:1],,,4,6,3,,2,{8}5,1,
5/3,8,6/4q8[8:1],1,2/4,2,3/1p5[8:1],4,
4/1-4[8:1],3,1/7,{16}6,5,8,4,,7,{8}3,5,
7/1,4/6,{4}8/C/B2/B3,2/C/B6/B5,6h[2:1]/C/B3/B4,
{8},,5,4h[8:1],6,4h[8:1],{16}6,3,,3,
{8}6,3h[8:1],6,4h[8:1],6,4h[8:1],{4}7-5[8:1],
7h[4:1],{8}4,3h[8:1],5,3h[8:1],{16}5,2,,2,
{8}5,2h[8:1],5,3h[8:1],5,3h[8:1],{4}6-3[8:1],
6h[4:1],{8}2,5h[8:1],3,5h[8:1],{16}3,6,,6,
{8}3,7h[8:1],3,6h[8:1],3,5h[8:1],{4}2-6[8:1],
2h[4:1],{8}5,3,{16}5h[16:3],,,4,{8}4,6,
4h[8:1],7h[8:1],{32},,1x<4[4:1]*<4[4:1],2x,{8}3xqq4[16:5]*qq4[16:5],,,,,8-5[8:1]*-6[8:1],
{24}3,,3,{4}8b-3[8:1]*-2[8:1],8,{12}7,{24}7,2,,2,
{12}1-7[8:1]*-6[8:1],{24}1,4,,4,{4}1-4[8:1]*-3[8:1],1,{12}7,{24}7,5,,5,
{12}4-7[8:1]*-6[8:1],{24}4,2,,2,{4}4-1[8:1]*-2[8:1],4,{12}8,{24}8,6x,,6x,
{12}4x>6[4:1],{24}4x,2,,2,{4}4xq5[16:5],{2}4x,
{12}6,{24}4,7,,5,{8}6,2,6/4,1,{12}5/3,{24}4,2-5[8:1],,5,
{8}3,2,6,7,5/3,8,{12}4/6,{24}5,8-5[8:1],,4,
{8}7,8-3[8:1],2,8/6,5-7[8:1],6,5/3-1[8:1],2,
3/8-4[8:1],7,{4}8/7-3[8:1],7/6-2[8:1],6/5>4-1[8:1]*>4-1[8:1],
5,{8}6/8h[8:1],6,6/4h[8:1],{24}6,,3,{12}7p3[8:1],{24}1,8,,3,
{8}7,2,2/4h[8:1],2,3/8h[8:1],3,{12}3v8b[32:5],{24}7,4,,5,
{8}3,5V71[16:3],,5/2,{4}3h[16:3],{8}1,3h[8:1],
8,2,{16}7/1<3[16:5],,,6,{8}1,,,5,
3qq5b[8:3],6,{4}3/7h[8:1],6h[8:1],{12}6,{24}4,8,,5,
{8}6pp4[8:3],4,{4}6/3h[8:1],2h[8:1],{12}2,{24}5,3,,7,
{8}4-8>1-5[8:3],6,{4}4/6h[16:3],{8},7,{12}6,{24}6,4,,4,
{12}5,{24}5,3,,,{8}Ch[8:1],{24}B6,B2,E8,E4,E7,E3,E6,E2,E5,{4}Cf/B8/B4,
1p5[8:1]/7<5[8:1],1b>3[8:1]/7bq3[8:1],{16}1/7,,,4x,6,3,,2/8,
{8}2p6[8:1]/8<6[8:1],5/3,{4}2>4[8:1]/8q4[8:1],{16}2/8,,,5,3,7,,8b/2b,
,,{8}2b/8b,{16}5,3h[4:1],,1-5-2-4[16:7],,7,,1/6h[16:3],,,,,{8}6,
7,{16}8-4[8:1]*-4[8:1],,,3,8b,,,3,5,2,,5/1,
{8}1q5[8:1]/5q1[8:1],6/8,{4}1b<6[8:1]/5b>2[8:1],{16}1/5,,,5x,1x,5x,,6/2,
{8}2q6[8:1]/6q2[8:1],7/1,{4}2<7[8:1]/6>3[8:1],{16}2/6,,,2x,6x,2x,,5,
{8}1,1/5p1[8:1],7,{16}5,6h[16:3],,,{8}1x,{16}5,2,,,3/4>5[8:3],
,,2h[16:3],,,,,{8}2,2-4-8z4[16:11],,7,
{4}8>1s5b[16:5],,,3b/5b-7V13[4:1],
{8}2/5,3,{4}4V68-2[4:1],{8}2/4,3,{4}4-7[8:1],
{8}4/2-5[8:1],1,2/6-1[8:1],7,6/4v1[8:1]*-7[8:1],3,{4}4V28-6[4:1],
{8}4/7,6,{4}5-2[8:1],{8}5/8-4[8:1],7,8/1-3[32:3],2,
1/5-7[32:3],6,5/4-8[8:1],3,4/6-1[8:1]*-3[8:1],5,{4}6b,
{8}2/8-4[8:1],7/1,{4}6/8,{8}3/8-4[8:1]*-4[8:1],7/2,{4}6/8,
{8}3/8-4b[8:1],7/2,8/6-1[8:1],5-2[8:1],6,5,8,3/5,
1,4/6,{16}8,2,,5,{8}3-6[8:1],2,3/7-2[8:1],8,
7/5,3,{4}7/4q5[4:1],4/5<5<4b[4:3],7h[4:3],
{12},,,,,,,,,6,{24}4,7,,5,
{12}6,{24}4,7,,5,{12}6,{24}4,8b,,,{8}8b,2,3/5,7,
4/6,2,{12}3,{24}5,4,,6,{8}2-6[8:1],7,{4}2b/1-5[8:1],
1b/8-4[8:1],8b/7-3[8:1],{2}6b/7<5p4>2b[2:1],
E
