&title=亡霊
&artist=森罗万象
&first=0
&des=ImagineWind
&des_5=ImagineWind
&lv_5=13
&inote_5=(115){4},,,,{2}C,
B6,
{8},E4,{4},{8}E7,{32}E3,B3,{16}B4,{4}E1,
{2}C,B2,
{4}B5/E5,B2/B1,{8},{16}E8,C,{4}E4,
6/1b>1[1:3],6,6,6,
6,6,6,6,
5,5,5,5,
5,5,{8}5,2,6V47[4:1],1,
{4}6,8-5[8:1],{8},4qq1[8:3],,4,
,7,{4}7V58[4:1]*V52[4:1],{8}7,{4},{8}6V82[4:1],
{4},3>5[4:1],4,{8}3,3V17[4:1],
{4},6<4[4:1],{2}4-8[8:1]*-2-5[4:1],
{4}7qq8[8:3]*-3[8:1],7,{8},3,2-4[8:1],1,
2/6pp6[4:1],7,{4}6/3V52[4:1],{8}3,{4},{8}5-8[8:1],
,5/3,2-4[8:1],1-5[8:1],2-6[8:1],1,2,8-6-4<6<8[2:1],
,4,{4}2,1w5[8:1],1x,
{16}6,5,{8}6,{16}3,4,{8}3,{16}6,5,{8}6,{16}3,4,{8}3,
{16}6,5,{8}6,{16}3,4,{8}3,{16}6<2v4[4:1],5,{8}6,{4}B2/B1/E2,
{8}3x-8[8:1],2,7-4[8:1],6,2V83[4:1],1,2,5-1-5[2:1],
{4},,{8},2,2,1,
6h[16:1],6h[16:1],3h[16:1],3h[16:1],6h[16:1],6h[16:1],3h[16:1],3h[16:1],
6h[16:1],6h[16:1],3h[16:1],3h[16:1],7V51[4:1],8/2h[16:1],{4}7,
{8}4-2[8:1],3,5-7[8:1],6,3-8[8:1],2,5,4h[8:7],
{4}1b,{2},{4}6<2[8:1],
6/4-8[8:1],4/7>3[8:1],7/5-1[8:1],5/6>2[4:1],
2q7[4:1],{16}7v2[8:1],{8},{16}2x,{8},3,4V25[4:1],3/7,
4/5<1[4:1],6,{4}1>5[4:1],5q1[4:1],1q5[4:1],
{8}6,7,8,1h[8:1],5h[4:1],2,{4}3>7[8:1],
3/5-1[8:1],5/2<6[8:1],2/4-8[8:1],4/3V15[4:1],
{8}3/6-8[8:1],7,6,4-2[8:1],,5,5V74[4:1],6/1,
5/4>8[4:1],3,{4}8<4[4:1],4-8[8:1],1,
{8}7h[4:1]/3>8[8:1],{4},{8}5V37[4:1],,1b,{4}1b,
{1}3h[2:3],
Cfh[4:3],
{2}1>4[4:1],5<8[4:1],
{4}2h[1:1],6h[8:1],7h[8:1],8h[8:1],
{2}Ch[1:1],3,
{16}4,{8},{16}7,,4,{8}5,{2}4h[4:1]/5h[4:1],
{8}6h[8:3],5h[16:1],{16},4h[16:1],{8},3h[8:3],6h[16:1],{16},7h[16:1],{8},{12}8h[6:1],
4,3,2h[6:1],6,7,8h[6:1],3,4,4h[6:1],8,7,
{8}5/6,{16}6<1[8:1],5,,5,{8}6,{2}4V25[4:1],
{4}8h[8:7],C,1h[8:1],2h[8:1],
3-8[8:1],4,{8}4-1[8:1],4,{4}5,
7-4[8:1],8,{8}8-4[8:1],8,{4}2,
{1}5h[4:7]/3>2<1<8<7-1-3[1:1],
{4},,{8},2,4>8[8:1],3,
4/5-7[8:1],6,{4}5/3>8[8:1],{8}3/4-7[8:1],6,{4}4/1-5[8:1],
1/5>2[8:1],{16}5x<8[8:1],{8},{16}5x,{8},3,4/6-1[8:1],7/5,
6/4-8[8:1],3,{4}4/5-1[8:1],5/4V26[4:1],4,
{8}7,8-4-8[4:1],5/6,8/4,,3,5<1[8:1],6,
5/4-2[8:1],3,{4}4/6<1[8:1],{8}6/5-2[8:1],3,{4}5/8-4[8:1],
{8}8/4-6[8:1],3-8[8:1],4x,3x,,4,5/3-8[8:1],6/1,
3/5-1[8:1],6,{4}5/4-8[8:1],6/4V25[4:1],4/5,
6b,6b,6b<1[8:1],{8}6,{16}2x,3x,
{4}4x-1[8:1]*pp6[8:1],4,{16}2-6[8:1],8,1-5[8:1],7,{8}2,1,
{2}3qq1[8:1]*-7[8:1],{16}6-8[8:1],2,5-1[8:1],4,{8}6,5,
7-4[8:1],6,,3V52[4:1],,3,6,8,
{4}7h[8:1],8h[8:1]/2h[4:1],{8},7,8-4[8:1],5/7,
{4}8/4xpp5[8:1]*-1[8:1],4x,{16}3-1[8:1],5,8-5[8:1],6,{8}3,8,
{4}2xpp3[8:1]*-6[8:1],2,{16}7-5[8:1],1,4-8[8:1],2,{8}7,4,
6-2[8:1],5,6/8-3[8:1]*-5[8:1],1,{4}8w4[8:1],8,
E7,B2,E8,C,
{1}2h[16:19]/6h[16:19],
