&title=AFTER PANDORA
&artist=削除
&first=0.345
&lv_1=1
&des_1=
&inote_1=
(85){4},{1},,,,,,,,,,,,,,,,,,,{4},,,,
,,(170),
{1},,,,,{4},,{16},,,(85),
,,,(170),
E
&lv_2=1
&des_2=
&inote_2=
(85){4},{1},,,,,,,,,,,,,,,,,,,{4},,,,
,,(170),
{1},,,,,{4},,{16},,,(85),
,,,(170),
E
&lv_3=1
&des_3=
&inote_3=
(85){4},{1},,,,,,,,,,,,,,,,,,,{4},,,,
,,(170),
{1},,,,,{4},,{16},,,(85),
,,,(170),
E
&lv_4=1
&des_4=
&inote_4=
(85){4},{1},,,,,,,,,,,,,,,,,,,{4},,,,
,,(170),
{1},,,,,{4},,{16},,,(85),
,,,(170),
E
&lv_5=1
&des_5=
&inote_5=
(85){4},
E
&lv_6=15
&des_6=111
&inote_6=
(85){4},{32},,,,,,,,,,,,,,,,5,4,3,2,1,8,7,3/6h[32:45],
{4},,,5,
{2}5h[4:1],4h[4:1]/6h[8:3],
3h[4:1]/6h[8:3],2h[4:1]/6h[8:3],
{8}1/6h[8:3],3,8,2,4V28[8:1],4V68[8:1],8/4,4,
1bv8[4:1],2,5,4,7,6,1v7[4:1],4,
{16}8,2,{32}5,6,{16}3,4,6,2,8,{8}1v6[4:1],3,7,8,
4,{16}5,{32}3,2,{8}1-5[4:1],8,7,3,4,6,
8/1v4[4:1],{32}7,6,{16}5,1,3,{8}6,5,{32}7/5,6/3,{16}2/4,{8}8b/1v3[4:1],{16}6,7/4,
{8}1/5,8,4,{16}6,{32}7,8,{8}1v2[4:1],{16}5/4,7,{8}1,6h[4:1],
{16},,,4/3,{8}1>1[2:1],5,{2}5/1<1[1:1],
{1},{4},{16}2-6[8:1],
3,6,4h,5-1[8:1],8,4,7h,3v8[8:1],6,4,2h,
5qq7[4:1],{32}4,6,{16}3,2,{4}1h[4:1],{16},1-5[16:1],3/4-8[16:1],2/5,6/1,8-3[8:1],{32}4-7[8:1],,,2,
{16}1,2,{8}4h[16:1],{16}5-8[8:1],1-4[8:1],3,{32}6,7,{48}3h[16:1],,,,,,,6h,7,8,1,2,{4}3h[4:1],
{16}5,6<1[8:1],6,1,1V37[4:1],5,4,3,3h,8,8,4h,4>1[8:1],8,6,7h,
1,5,6,{32}3>8[8:1],4,{16}3h,8,8V62[8:1],4,{32}5,4,{16}3h,7,1,1,5-1[8:1],5,{32}8,5,
{16}8,3-7[8:1],3,{32}3,5,{16}6h,1V35[16:1],1,1V75[16:1],1,5,1h,1,{48}4,3,2,1,8,7,6,5/4,6,7,8,1,
2,3,4,5,6,7,8/1,4,3,2,1,8,7,6,5,1,2,3,4,8,7,6,{24}5,{4}3b-7[1:1],{48}8,2,8,2,8,2,4,6,4,6,4,6,
5,1,5,1,5,1,8,1,2,3,8,1,2,3,6,5,4,3,6,5,4,3,1,2,3,4,1,2,3,4,6,5,4,3,2,1,{4}8z4[16:1]*s4[16:1],
8b<5[8:1],{8}8,1>4[8:1],{4}4z8[16:9],6h[8:3],
{16},,,,,,1,1-5[8:1],2,{32}3,7,{16}4,5,6,{32}7,3,{16}8-4[8:1],1,
2,3,{48}4,6,7,8,1,2,{4}3h[8:3],{8},4h[8:1],{32},3h[16:1],,5h[16:1],,6h[32:1],{48}3h,2,1,
8,7,6,5,4,3,2,1,8,7,{24}6,{16}1h/5V38[8:1]*V72[8:1],5h[16:1],,,{4}5,{16}6/3-8[16:1],3,4/7-2[16:1],7,
5/3-6[16:1],5,4/7-4[16:1],4,7/3,3>8[8:1],7,8<6[8:1],,3b/6>3[8:1],,,,3-7[16:1],,7-1[16:1]*-5[16:1],
,,,,,4/2-6[16:1],4,3/7-1[16:1],7,2/5-3[16:1],2,3/7,3,5/6,6-1[16:1],1-4[16:1],
4b-7[16:1],7-2[16:1],2-5[16:1],5-8[16:1],8-3[16:1],3-6[16:1],{8}6w2[16:1],{48},,,,,,,,,,,,2b-6[1:1],5,2,5,2,5,7,4,7,4,7,4,
{40}8,1,8,1,8,4,5,4,5,4,{32}7,3,7,3,2,6,2,6,{28}1,8,7,4,3,{168}2,,,,,1,,,,,,,{24}5,8,2,7,{60}3,,8,,,{20}4,
7,1,3/4,{80},,,,{16}2/5,6/1,{8}7/8,{12}5/4,6/3,{48}7/2,,,,,,,6-8[16:1],,,{16}8-2[16:1],2-4[16:1],
{4}4-6[16:1],8,{8},3/2h[16:13],,,,6h[16:5],
{32},,,,,,,7/3,8h/4h,1h[8:1]/5w1[16:1],,,,,,,,,,,{8}4h[16:1]/5h[16:1],
{16}3/6,6/3,7h/2h,7h/2h,1/8-4[16:1],5/4-2[16:1],1,6,8/7-5[16:1],5-1[16:1],8,3,7/3-8[16:1],8-5[16:1],7,6/4,
3/7-4[16:1],4-1[16:1],6,3,7/1-6[16:1],6s2[16:1],2>6[16:1],6<2[16:1],,,,,4-1[16:1],1-5[16:1],{32}3,6,{16}8,
4/7-2[16:1],2-5[16:1],{32}4,8,{16}6,7/5-8[16:1],8-4[16:1],{32}1,7,{16}3,5/3p7[16:1],7p3[16:1],{32}3>7[16:1],5,{16}7<3[16:1],,,{8}8bw4[16:1],
,8,{16}2/6-3[16:1],4/3-7[16:1],{32}2,2,1,8,{16}5/6-1[16:1],1-4[16:1],{32}8,8,2,3,{16}6/5v7[16:1],7-4[16:1],{32}3,3,2,1,
{16}3-8[16:1],8>3[16:1],{32}5,5,6,7,{16}3b/8-5[16:1],5V37[16:1],{32}7bV14[8:1],7,2,3,,,,,,,,,{16}6-2[16:1],8/4-8[16:1],3/7-3[16:1],5/1-5[16:1],
6<6[8:1],4,7,1h[16:1],{48},,,,,,,7,8,1,2,3,{8}4/5-8[6:1],{48}8,7,6,1,2,3,5/4,3,2,1,2,3,4,5,6,7b/3b,,,{16}6,
5,4,3,{48}8b,7,6,5,4,3/7,2,1,2,1,2,1/8,2,3,4,5,6,7,8,1b,8,1,8,1/2,8,7,6,5,4,3,2,1,8,7,8,7,
8,7/6,8b,1,2,3,4,5,6-2[96:5],7,6,7,6,7/8,6,7,8,1,2,3,{12}4b/6b,{16}7b/3b,8b/4b,1b/5b,2b/6b,{48}7b/3b,8,1,2/6,3,4,3,4,3,4,3,2,
1,8,7,6,5,6,5,6b,5/4,6,7,8,1,2,3,2,3,2,3/4,2b,1,8,7,6,7,6b,7,6/5,7,8,1,2,1-5[96:5],2,1,2/3,1,8b,7,6,5,4,3,2,{12}1b/5b,
{16}7h[16:1],1h[16:1],3h[16:1],5h[16:1],{32},4,{48}6,4,6,4,6,4,6,4,6,4,3,2,1,8,7,6,5,3,5,3,5,3,5,3,5,3,4,5,6,7,8,1,2,
4,2,4,2,4,2,4,2,4,3,2,1,8,7,6,5,4,3,2,8b,2,8,2,8,2,8,2,8,5/2,6/3,7/4,8,1,2,3,4,5,6,7,8/2,1,7,1,7,1,7,1,7,
1,7,6,5,4,3,2,1/7,8,6,8,6,8,6,8,6,8,6,7,8,1,2,3,4/6,5,7,5,7,5,7,5,7,5,6,7,8,4,3,2,{192}1,,,8,,,{64}7,6,5,1,2,3,4,8,7,6,
5-8[1:1],1,2,3,4-1[16:15],7,6,5,2,3,4,8,7,6,1,2,{16}3,4b,{1},{32}5,
6,7-3[16:1],8,1-5[16:1],2,3,4,,,{16}7,{4}1,
{32},,,,,,,,5,5,{16}4,{8}5,,,{4}6/3,
{8},7/2,{48}1/8b-4[4:5],2,8,2,8,2,5,3,5,3,5,3,{40}8/4b,7,4,7,4,5b,8,5,8,5,{32}2,6,2,6,1b,7,1,7,
{28}8b,1,7,2,6,3,5,3b,{168},{24}6,2,7b,{48}1,6b,{24}8,{20}2b,{80}1,5b,,,{40}3,1b,{20}7,5,8,{80},{16}6/7,2/3,5/4,
{12}8/1,7,3,2/6,{24},{8}8/4,{4}1/5,8/1,
{8}5h[16:1]/4h[16:1],{16}8-2[16:1],2-4[16:1],4-6[16:1],6-8[16:1],{8}8b,
E
&lv_7=1
&des_7=
&inote_7=
(85){4},{1},,,,,,,,,,,,,,,,,,,{4},,,,
,,(170),
{1},,,,,{4},,{16},,,(85),
,,,(170),
{1},,,,,,,,,,,{4},,(85),
(170),
,,,,,,,,,,,,,,,,,,,(85),
(170){1},
{4},(42.5),,,,,(170){2},
{1},,,,,,,{4},{16},{32},(85),
,,,,(170){2},
,(85),
{4},,,,,,,,,(170),
{1},,,,(85){8},
,,(170),
{1},,,,,,,,,,,,,,,,(85),
{32},,,,,,,,,,,,,,,,,,,(170),{1},,,,,{4},,,{16},,(85){2},
E
