&title=不死身ごっこ
&artist=ピノキオピー
&first=0.19
&des=不屈999
&lv_5=13+
&inote_5=(147){4}2h[4:1]/4h[8:3],,{2}5h[8:3]/3h[4:1],
6/4>5[2:1],8,
3h[4:1]/1h[8:3],8h[8:3]/2h[4:1],
7h[4:1]/1>8b[4:1],{4}C,{8}1x,2/8,
{4}7/3<5[8:1],{8}6,6,{4}7<5[8:1],{8}4,4,
{4}3-5[8:1],7-5[8:1],1,{8}8x,7/1,
{4}2/6>4[8:1],{8}3,3,{4}2>4[8:1],{8}5,5,
{4}6-4[8:1],2-4[8:1],8,{8}6x,7/5,
{4}8-3[8:1],{8}4,4,{4}5-2[8:1],{8}1,1,
{4}8-3[8:1],4-1[8:1],5-8[8:1],2h[4:1],
1<6[8:1],4>1[8:1],7-4[8:1],8h[4:1],
{8}4,8/4,{16}5x/1x,6x,7x,8x,{2}1xh[2:1]/5h[4:1],
{4}B6/E7/B2/E3/Cf,{8}8h[16:1],8h[16:1],7/1h[4:1],{24}E7,B6,B5,{8}B4,1,
2/8h[4:1],{24}E3,B3,B4,{8}B5,8,7/1h[4:1],{24}E7,B6,B5,{8}B4,1,
{4}3/7,{8}1h[16:1],1h[16:1],2/6h[4:1],{24}E3,B3,B4,{8}B5,6,
7/4h[4:1],{24}E7,B6,B5,{8}B4,1-5b[8:1],{2}5-1[8:1],
{16}2/8-3[8:1],,,3,,4,,,{8}6>4[8:1],4,{4}6/3,
{16}5<8[8:1],,,4,,3,,,{8}3q5[4:1],2,{4}3/8,
{8}7x,{16}6x,5,,3,{8}4,2-5[8:1],3/4,{4}2x/5x,
{8}6h[8:1],7h[8:1],8h[8:1],1h[8:1],{12}E3,E4,E5,E7,E8,E1,
{1}2xp6[2:1]/6xp2[2:1],
{4}1h[8:1]/5h[8:1],{8}2h[16:1]/6h[16:1],2h[16:1]/6h[16:1],{16}A3,A7,{24}A4,A8,E5,{4}E1fh[4:1],
{16}5b-2[8:1],,,6,{8}5-8[8:1],7,{4}5/1-5[8:1],{8}1/2,3,
{16}4-1[8:1],,,5,{8}4<7[8:1],6,{4}2,{8}3,4/8,
1<3[4:1],4,3,2,1q7[4:1],5,6,7,
{24}8,E8,B7,B6,E6,E3,B3,B4,E5,C,,,{8}6b/2b,3x/5,{4}1x/7x,
{16}1-4[8:1],,,8,{8}1-6[8:1],7,{4}1/5-1[8:1],{8}5/4,3,
{16}2-5[8:1],,,1,{8}2<7[8:1],8,{4}4,{8}6,5/7,
8<2[4:1],3,2,1,8q6[4:1],4,5,6,
7h[16:1],7h[16:1],{16}6,5,6-8[8:1],5,{2}6-2[8:1],
{4}3h[16:3]/1h[8:1],1h[16:3]/3h[8:1],{8}3/1V38[4:1],2/8,{4}7,
{8}6h[4:1],8b,5h[4:1],8b,4,3,{4}2h[8:1]/4h[8:1],
8h[16:3]/7h[8:1],7h[16:3]/8h[8:1],{8}7/6V84[4:1],6/5,{4}4,
{8}2h[4:1],4b,1h[4:1],4b,3qq5[4:1],8/2,{4}7,
{16}6-8[8:1],,,5,{8}6bp4[4:1],4,{4}6,2b,
{16}3-1[8:1],,,8,{8}3qq4[4:1],7,{4}3,{8}6,7/5,
{4}8<4[4:1],4>8[4:1],{2}8-4[8:1],
{4}2bh[8:3],{8}3,1,8/4,8/4,{16}6,5,{8}7h[8:3],
{32}B3,B4,,,,,,,{8}8,6/1,2,3h[8:1],5,3h[8:3],
{24}C,B5,,,,,{8}5,6,7-4[8:1],3-1[8:1],7,3,
5,5,{16}6p4[4:1],2,6,2,{32}B2,C,{16}B6,,,,,,,4,
3,,3,{8}4h[4:1],2,1-5[8:1],5/2,{4}1,
{16}6,5,6,5,7,4,7,4,{8}8-4[8:1],3/7,{4}8,
{8}3,2/4,{16}1,8,,8,{8}2,7/3,{4}6q2p6[8:7]/2q6p2[8:7],
,,,,{1}Ch[1:1],
{8}A1,A8,{16}A7,A3,{24}A6,A2,E6,E2,E5,E1,B4,B8,Cfh[24:7],,,,,,,{1}5bp4q5[2:3],
{8},,,,,,,,6/5,
4,{16}4,3,,3h[16:3],2,1,8,7,4,3,2,1,
7,8,6,8,7,1,7,8,6,4,6,5,7xh[32:1],7xh[32:1],7xh[32:1],7xh[32:1],
6x/1x>4[8:1],,,1,{8}4,5,{4}6-2[8:1],8,
{16}7x<4[8:1],,,7,{8}3,2,{4}1-5[8:1],5/1,
{16}6,5,,3,{8}4,{16}7,5,,2,{8}4,8<3[4:1],1,
{2}2>7[4:1],{4}3h[4:1],{32}8,1,2,3,4,5,6,7,
{1}8xv1>2v3-8[4:13]*v7<6v5-8b[4:13],
{2},,,,,A8f,
5/1qq4[4:1],5>2[12:1],
4pp1[4:1],4>1[12:1],
{4}6h[8:1]/8h[8:1],4h[8:1]/6h[8:1],4h[8:1]/2h[8:1],1h[8:1]/2h[8:1],
{2}2bh[4:1]/8xh[4:1],{8}1,1,{16}2/8,3,4,5,
1b<6[8:1],,,5,{8}1-4[8:1],3,1x/5-2[8:1],6,5/7,8,
{16}1xV74[4:1],,,3,{8}1,2,1bx>4[8:1],3,{4}1x/5-1[8:1],
{8}5/7-4[8:1],6,7/1<7[8:1],2-6[8:1],1-5[8:1],2>4[8:1],1,2,
{24}6b,E7,B7,B8,E1,E3,B3,B4,E5,C,,,{8}2b/6b,3/5,{4}1/7h[4:1],
{16}8b>3[8:1],,,4,{8}8-5[8:1],6,8x/4-7[8:1],3,4/2,1,
{16}8bxV25[4:1],,,6,{8}8,7,8<5[8:1],6,{4}8x/4-8[8:1],
{8}4/2-5[8:1],3,2,6,7-4[8:1],5,7/3,2,
1/8,{16}2,6,4,7,5-3[8:1],8,{2}5-1[8:1],
{8}2/8,{16}3,4,{8}3,{16}3,1,{8}3V52[4:1],2/4,{4}3/5,
{8}6h[4:1],1b,5h[4:1],8b,4,3,{4}4/2,
{8}1/8,{16}7,5,{8}6,{16}2,4,{8}3V58[4:1],8,{4}3/7,
{8}6h[4:1],1b,5h[4:1],3b,2qq5[4:1],1,{4}2/8,
{16}7b<4[8:1],,,8,{8}7qq1[8:3],1,{4}7/2b>4[8:1],2b,
{16}2b>5[8:1],,,1,{8}2pp8[4:1],8,{4}2/7b<5[8:1],{8}7b,1,
{24}2x/5x-2[8:1],3x/6x,4x/7x,5x/8x,,,{4}1b,{24}7x/4x-7[8:1],6x/3x,5x/2x,4x/1x,,,{4}8b,
{16}4x,5x,4x,5x,4,5,4-2[8:1],5,{2}4v1[8:1],
{4}1x/3x-6[8:1],3x/8-5[8:1],8x/4-8[8:1],7x<2[4:1],
2x>7[4:1],8x,{8}1,2,{4}3-6[2:1]/7-2[2:1],
{8},,,,,,,,2b/8b,
{16}3,4,{8}3,{16}3,2,{8}4-7[8:1],1,4/2-5[8:1],3,
2b-8[8:1],8,2bpp5[8:3],6,2,7b,{4}7b,
{8}7b/5,{16}6,5,{8}6,{16}6,7,{8}5>2[8:1],4,5/1-6[8:1],8,
1b-5[8:1],2,1bV74-6[8:3],4,1,2b,{4}2b,
{8}3b/8b,{16}2,1,{8}2,{16}2,3,{8}1-6[8:1],4,1/3-8[8:1],2,
3b-5[8:1],5,3bqq8[8:3],7,3,6b,{4}6b,
1/7h[4:1],{24}B2,B3,B4,E5,,,{8}8,{24}5x,6x,5x,{8}7x-5[8:1],4,
{4}7-1[8:1],7-4[8:1],7>2[8:1],7-1-5-3[8:3],
,,{2}4x>4>7[4:3],
E
