&title=frayed
&artist=遥風啓司 feat.雨歌エル
&first=0
&des=rein
&lv_5=13
&inote_5=(82){4},,,,{2}2v1[16:3],
3v2[16:3],
4v3[16:3],5v4[16:3],
{4}6v5[8:1],7v6[8:1],8v7[8:1],2v8[8:1],
3v2[8:1],5v3[8:1],6v5[8:1],8v6[8:1],
3v8[8:1],5v3[8:1],8v5[8:1],2v8[8:1],
5v2[8:1],{8}1-5[4:5],1,{1},{2},{8}8/6<2[2:1],
8h[8:5]/7>3[2:1],{4},,,{8}4/2>6[2:1],
4h[8:5]/3<7[2:1],{4},,,{8}1/8>8[2:1],
1h[8:5]/2>2[2:1],{4},,,{8}5/4<4[2:1],
5h[8:5]/6<6[2:1],{4},,,{8}4qq4[4:1],
1>3[16:1],{4}8,{8}8qq7[16:3],5<7[16:1],{4}4,
{8}2qq2[16:5],7>2[16:3],2,7pp8[4:1],{4},3<3[1:1],
{8}5,6<3[8:5],7,8>3[8:3],1,2>3[8:1],4z8[2:1],5s1[8:3],
{1},{8}1/2<6[2:1],
3/1<5[2:1],{4}4pp6[4:1],{2},{8}5/6>2[2:1],
7/5>1[2:1],{4}8pp2[4:1],{2},{8}1/4>4[2:1],
4/2<2[2:1],{4}3pp4[4:1],{2},{8}5/8<8[2:1],
8/6>6[2:1],{4}7pp8[4:1],{2},{8}3/1pp2[16:3],
4>2[16:1],{4}5,{8}6/8qq8[4:1],5<7[16:1],{4}4,
{8}2qq2[16:5],6<2[16:3],2,6qq5[4:1],{4},4>8[2:1],
{8}2<6[2:1],1<7[4:1],{4},{8}6>8[2:1],5>3[8:1],{4},{8}8<1[16:7],
6>3[16:3],4>1[16:3],2<1[16:1],{2}8w4[8:1]*w4[8:1],
{4}6qq6[4:1],2qq1[16:3]/6<2[4:1],2>8[8:3],3qq1[8:1],
3pp3[4:1],7pp8[16:3]/3>6[16:5],7<1[8:3],5pp7[8:1],
5qq5[4:1],1qq8[16:3]/5<3[8:3],1>7[8:3],2qq8[8:1],
2pp2[4:1],2<3[16:7]/6pp7[16:3],6>8[8:3],4pp6[8:1],
4qq4[4:1],4>4[2:1]/8qq7[16:3],8<1[16:7],7pp1[16:3],
7qq7[4:1],7<7[2:1]/3qq2[16:3],3>4[16:7],2pp4[16:3],
2qq2[4:1],2<2[2:1]/6qq5[16:3],6>7[16:7],5qq3[16:3],
5<5[2:1],5qq5[4:1]/1>8[16:7],{2}5pp5[4:1],
{1}1b>8[2:1]*pp8[2:1],
{4}6<8[8:1]/1p5[8:1],1qq3[8:3],2/1>3[8:1],1,
2>4[8:1]/5p1[8:1],5qq8[8:3],7/5<8[8:1],5,
2qq8[8:1]/7<4[8:1],7pp4[8:3],5/7-3[8:1],7,
{16}2-5[8:1],2,1,1,7-2[8:1],7,6,6,4-7[8:1],4,3,3,1v4[12:1],1,8,8,
6v1[12:1],6h[32:1],5h[32:1],4h[32:1],3v6[12:1],3h[32:1],2h[32:1],1h[32:1],8v3[12:1],8h[32:1],7h[32:1],6h[32:1],5v8[12:1],5h[32:1],4h[32:1],3h[32:1],
2v4[12:1],2h[32:1],1h[32:1],8h[32:1],7v2[12:1],7h[32:1],6h[32:1],6h[32:1],5v7[12:1],5h[32:1],4h[32:1],3h[32:1],2v5[12:1],2h[32:1],1h[32:1],1h[32:1],
8v2[12:1],8h[32:1],7h[32:1],7h[32:1],6v8[12:1],6h[32:1],5h[32:1],5h[32:1],4v6[12:1],4h[32:1],3h[32:1],3h[32:1],2v4[12:1],2h[32:1],1h[32:1],1h[32:1],
{2}8v1[16:3],7v8[16:3],
6v7[16:3],5v6[16:3],
4v5[16:3],3v4[16:3],
2v3[16:3],{16}1v2[16:3],{4},{8},{16}8b-4[16:9]*v1[16:9],
{1},,,E
