&title=whiz
&artist=TrySail
&first=0
&des=历色
&lv_5=13
&inote_5=(171)
{1},,
{8},,,E8,E1,E2,,C,
{8}2,2,4,3,,D8,B8/B7,,
{8}2,2,4,3,,D8,B8/B7,,
{8}2,2,4,3h[8:1],2h[8:1],1h[8:1],8h[8:1],7h[8:1],
{8}6,6,4,5bw1[8:1],,,,,
{16}36,,4-8[8:1]/5,,
,,8,,
,,6-2[8:1],,
,,2,,
{16},,3p6[16:4],,
,,8x,,
,,,,
,,,,
{16}18,,7-3[8:1]/2,,
,,3,,
,,2-6[8:1],,
,,6,,
{16},,7p2[16:4],,
,,4xh[8:3],,
,,,,
,,,,
{8}27,3-8[8:1]/6,,8,,5-1[8:1],,1,
{16},,4-1[64:10]*-7[64:10],,,,4x,,,,,,2x,6x,3x,5x,
{8}4xh[8:1],,2xh[8:1]/8xh[8:1],,5xh[8:1],,1xh[8:1]/7xh[8:1],,
{8}2h[8:1],4h[8:1],5h[8:1],7b-3[8:1],,,,,
{8}2h[4:1]/4,,6-1[8:1],,5,,,4,
{8}5/3-8-4[4:1],,7,7h[8:3],,,,,
{8}2h[4:1]/8,,7-4[8:1],,3,,,1,
{8}2-5-1[8:2]/4,,6,6h[8:3],,,,,
{8}2h[4:1]/6,,7-3[8:1],,3,,,4,
{8}3h[4:1]/5h[4:1],,,7-3[8:1]/1-5[8:1],,,,,
{8}4x-2[8:1]/6x,,,,2x/4x-6[8:1],,,,
{8}4x-8-6-2b[8:3],7x,,,,,C,,
{8}1/7<4[8:1],,3,,2h[8:3],,,1,
{8}3/8<2[4:1],,2,1h[8:3],,,,,
{8}8/2>5[8:1],,6,,7h[8:3],,,8,
{8}6qq7[4:1]/1,,2,3h[8:3],,,,,
{8}7/2<7[8:1],,6,,5h[8:3],,,4,
{8}6qq3[8:3]/3,,2,1h[8:3],,,,1>4[8:1],
{8}5,1,,8<5[8:1],4,8,,,
{8}2bpp5[2:1]/6bpp1[2:1],,,,,,,,
{8}6h[4:1]/4xh[4:3],,,,3h[8:1],,3,,
{8}5xh[4:3]/3h[8:1],,,3h[8:1],,,6,,
{8}4h[8:1]/5h[8:1],,,3h[8:1],4h[8:1],5h[8:1],6h[8:2],,
{8}7b>4[4:1],,,,6h[8:1],,6h[8:1],,
{8}3h[4:1]/5xh[4:3],,,,2h[8:1],,2,,
{8}3xh[4:2]/4h[8:1],,,2h[8:1],,,81,,
{8}A3,A4,A5,A6,,D4,D5,D6,
{8},E4,E5,E6,B2,C,B7,,
{8}A6,A5,A4,A3,,D6,D5,D4,
{8},E5,C,,{48}1>4b[8:1]/8<5b[8:1],,,,,,
,,,,,,
,,,,,,
,,,,,,
{8}7-3[8:1]/3,,27,1>4[8:1]*<6[8:1],,,,,
{8}3qq4b[4:1],,3/B6/B5/E6,,7qq8b[4:1],,7/B1/B2/E2,,
{24}3qq2>8b[24:11],,,,,,3/6h[2:1],,,,,,,,,,,,1x,2x,3x,4xb>1[8:1]/8xb<5[8:1],,,
{8},84,,,4-8[8:1]/2-5[8:1],,42,,
{8}7-3[8:1],,7,1-5b[8:1]*-4[8:1],,{24}1b,,,,,,,,,
{8}2-6[8:1],,2,8-4b[8:1]*-5[8:1],,{24}8b,,,,,,,,,
{8}3-8[8:1]/2-5[8:1],,32,,6x/7x,54,23,1-5[8:1]/8-4[8:1],
{8},1/8,,3x/6x,{32}E5,E6,E7,E8,E1,E2,E3,E4,Cf/E5,,,,,,,,
{8}2-6[8:1]/4,,62,8<5[8:1]*>3[8:1],,,,,
{8}7qq8b[4:1],,7/B2/B1/E2,,3qq4b[4:1],,3/B5/B6/E6,,
{24}7qq6<4b[24:11],,,,,,7/2h[2:1],,,,,,,,,,,,5x,6x,7x,8xb<5[8:1]/4xb>1[8:1],,,
{8},48,,84,51,62,7-4-6[4:1]/3-8-2[4:1],,
{8}7b/3b,,,,{16}28,,,56,,,34,,
{16}2-5[8:1]/7,,6,6x,2,,8h[8:4],,
,,5,,4,,3,,
{16}2-5[8:1],,2,,6,,8,8x,
4-1[8:1],,4,,7,,5,5x,
{16}8>3[8:1],,,,5<8[8:1]/8,,,,
45,,{24}3qq5<4b[8:6],,,,,,8xhb[8:6],,,
{24},,,,,,,,
,,,,,,,,
,,,,,,,,
{8}8<5[8:1],,8/3>8[8:1],,34,5-1-7-4>5b[4:3],,2xbh[8:6],
{8},,,,,,,,
{8}2v5[8:1],,6-1[8:1]/2,,3/6,4w8[8:1],,{64}4b<4pp1[8:13]*<4qq7b[8:13],,B4,,Cf,,B8/B7/B1,,
{8},,,,,,,,
{8},,,,,,,,
{8}26,2-5[8:1]/6,,7h[4:1],,8>3[8:1],,6,
{8},56,4/5,3h[4:1]/4,{16},,8x,1x,7x,2x,6x,,
{8}3x/5x,3x-7[8:1]/5x,,6,,5<8[8:1],,1,
{8},12,18,8/7h[8:3],{16},,,,2x,6x,3x,5x,
{8}4xh[8:1],,1xh[8:1]/7xh[8:1],,5xh[8:1],,2xh[8:1]/8xh[8:1],,
{8}7h[8:1],5h[8:1],4h[8:1],2bv7b[8:1],,,,,
{8}6h[8:3]/5>3[8:1],,,,,,,,
{8}6>4[8:1],3h[4:1],,,,,,,
{8}3h[8:3]/4<6[8:1],,,,,,,,
{8}3<5[8:1],6h[4:1],,,,,,,
{8}3h[8:3]/6>4[8:1],,,,,,,,
{8}4<6[8:1],3h[4:1],,,,,,,
{8}27,7-4[8:1]/2-5[8:1],,,,,,,
{8}45,4/5-1<8-4b[8:12],,{48}E5,C,E1,,,,,
,,,,,,,,
,,,,,,,,
,,,,,,,
{8},,,,,,,,
{8},,,,,,,,
{8},,,,,,,,
{8},,,,,,,,
{8},,,,,,,,
