&title=Fantastic future
&artist=田村ゆかり / TVアニメ「変態王子と笑わない猫」主題歌
&first=0.53
&des_5=アネット
&lv_1=音
&lv_5=13
&wholebpm=172
&demo_seek=65.9
&demo_len=10.5
&inote_1=(172)
{4}
1,1,1,1,1,1,1,1,1,1,1,1,1,1,
1,1,1,1,1,1,1,1,1,1,E,
&inote_5=(172)
{8}
2-6[8:1],,6-2[8:1],,2^5[8:1],,,,7pp7[4:1],,7p4[8:3]/4,,3h[8:2],,,,
2-6[8:1],5,2,,8-4[8:1],3,8,2h[8:2],,5-8[8:1],8-6[8:1],5,
4-1[8:1]*-7[8:1],,4,,
2-6[8:1],,6-2[8:1],,2p3[8:1],,,,7qq7[4:1],,7p4[8:3]/4,,3h[8:2],,,,
{16}2,3,4,5,8,7,6,5,{8}8-3[8:1],5-8[8:1],8,5bpp5[8:3]*qq5[8:3],,,,,,,2b/7b,,
8v3[8:1],,3v8[8:1],,8v5[8:1]*-6[8:1],,,,4q4[4:1],,4p1[8:3]/8,,7,,8,,
7<3[4:1],,3>7[4:1],,7<3[4:1],,3>7[4:1],,7p3[4:1],,3p7[4:1],,7^4[4:1],,3,,8v5[8:1],,5v8[8:1],,8v7[8:1]*v1[8:1],,,,8qq7[4:1],,7pp8[4:1],,,,6,,
57,58,51,52,31,38,37,36,,45,4-8[8:1]/5-1[8:1],,4b/5b,,
2v1[8:1]/6v7[8:1],,2<5[2:1]/6<4[2:1],,,,,,,,2-5[8:1]/6,,7,,
8^5[8:1]/5,4,3,,2>6[4:1],,6<2[4:1],,2>6[4:1],,6,,8,7,64,3,
{16}2,3,4,5,7h[16:2],,5,6,5h[16:4],,,,8b,,
{8}
2,6,3,7,1h[8:2],,5-8[4:1],,8-3[4:1],,3p6[4:1],,4,4h[8:2],,
5,5pp8[2:1],3,,3,,2,,2,,1-4[8:1]*-6[8:1],,1,,5-1[8:1],,57,
8,7,64,5,2,,1>5[4:1],,5<1[4:1],,1,,5,5h[8:3],,1,1w5[4:1],,,,,
2v1[8:1]/7v8[8:1],,2v3[8:1]/7v6[8:1],,2v1[8:1]/7v8[8:1],,
2v4[8:1]/7v5[8:1],,27,,,24,1,7,64,3q8[4:1],,8<4[4:1],,4p8[4:1],,
8pp2[4:1],,6,6h[1:1],,7,7qq2[8:3],,,,,,,1,1qq4[8:3],,,,,,,7b,,
24,3,75,6,2qq1[8:1]/4-1[8:1],,,,75,6,24,3,7bv1[8:1]/5-1[8:1],,,,
2v8[8:1]/4b-8[8:1],,,,7bv1[8:1]/5-1[8:1],,7v6[8:1]/5bv6[8:1],,
7w3[8:1],,7b,,
{16}
1,2,3,4,5,6,7,8,1/5v4[8:1],,,,,,2,,,,86,,,,45,,3^6[8:1]/6,,,,,,,,
8,7,6,5,4,3,2,1,8/4v5[8:1],,,,,,7,,,,13,,,,45,,6^3[8:1]/3,,,,,,,,
1,2,3,4,5,6,7,8,1/5v7[8:1],,,,,,8,,,,74,,,,23,,5^8[8:1]/1,,,,
2,,3,,{8}4-1[8:1],,,,5-8[8:1],,,,2^4[8:1],,7^5[8:1],,1^4[8:1],,
8^5[8:1],,1,1,8,8,4,4,6,6,{16}3,7,3,7,4,5,4,5,
{8}4qq7[8:3],,,,8z4[2:1],,,,,,,,
7-3[8:1],,3-7[8:1],,7^4[8:1],,,,2qq2[4:1],,2q5[8:3]/5,,6h[8:2],,,,
7-3[8:1],4,7,,1-5[8:1],6,1,7h[8:2],,4-1[8:1],1-3[8:1],4,
5-8[8:1]*-2[8:1],,5,,
7-3[8:1],,2-6[8:1],,6q4[8:1],,,,5pp5[4:1],,5q8[8:3]/4,,3h[8:2],,,,
2,3,46,6,47,48,41,4/2pp7[8:3],,1,1,,4,,1b/8b,,
7v5[8:1],,5v7[8:1],,7v5[8:1],,5pp8[8:5],,2,,1v4[8:1],,1,,37,,
7<3[4:1],,3>7[4:1],,7<3[4:1],,3>7[4:1],,7p3[4:1],,3p7[4:1],,7^4[4:1],,3,,8q5[8:1],,5p8[8:1],,8q5[8:1],,,,7pp7[4:1],,7p4[8:3]/4,,3h[8:2],,,,
2,3,4,5,{24}6,7,8,1,2,3,4,,,
{8}8v3[8:1],,85,5pp1[8:3]*qq1[8:3],,{1}5b,,E,
