&title=Kill Everybody
&artist=Skrillex
&first=0
&des=拉大便!
&lv_5=14
&inote_5=(127)
{1},,
{8}
1h[8:1]/8,,1h[8:1]/2,,1h[8:1]/7,,1h[8:1]/3,,
1h[8:1]/6,,1h[8:1]/4,,1h[8:1]/5,,1h[8:1]/5h[8:1],,
{32}
15,26,37,48,{8}15,48,37,26,15,26,,
2h[8:1]/6h[8:1],,3h[8:1]/7h[8:1],,2h[8:1]/6h[8:1],,1h[8:1]/5h[8:1],,
{32}
15,26,37,48,{8}15,48,37,26,15,26,,
2h[8:1]/6h[8:1],,1h[8:1]/5h[8:1],,2h[8:1]/6h[8:1],,3h[8:1]/7h[8:1],,
{32}
37,26,15,84,{8}37,48,15,26,37,26,,
2h[8:1]/6h[8:1],,1h[8:1]/5h[8:1],,2h[8:1]/6h[8:1],,3h[8:1]/7h[8:1],,
{32}
37,26,15,84,{8}37,48,15,26,37,2h[16:3]/6h[8:1],,
{16}8b,,,5,{8}4h[8:2],,5,,15,,
{32}
1-6[8:1]/5-1[8:1],26,37,48,{8}1>4[8:1]/5,,,
5-8[8:1],36,5/4>1[8:2],,
4/1<6[8:2],,6>3[8:2],,2,,7,,
{32}
1-6[8:1]/5-1[8:1],26,37,48,{8}1>4[8:1]/5,,,
8-3[8:1],37,8/4<7[8:2],,
4/7>2[8:2],,2>5[8:2],,6,,1,,
{32}
1-4[8:1]/5-1[8:1],84,73,62,{8}1<6[8:1]/5,,,
2-7[8:1],71,2/6>3[8:2],,
6/3>8[8:2],,8<5[8:2],,4,,1,,
{32}
1-6[8:1]/5-1[8:1],26,37,48,{8}1>4[8:1]/5,,,
5-2[8:1],36,5/4,,
1h[8:1]/4h[8:1],,5b/8b,,6b/7b,,45,,
5h[2:7]/4h[8:1],,,,3,3,3,,2h[8:1],,,,1,,1,,
8,8,8,8,7,7,7,7,6,,,,4h[1:4],,,,
5h[8:1],,,,6,6,6,,7h[8:1],,,,8,,8,,
1,1,1,1,2,2,2,2,3,,,,5h[8:21],,,,
4,,3,3,3,,2,2,1,1,8,8,7,,6,,
{32}
6b,7,8,1,2,3,4h[16:3],,
5b,6,7,8,1,2,3h[16:3],,
{16}
2b,,1,1h[16:3],
{32}8b,7,6,5,{8}4h[8:4],
8b,6,8,2h[8:4],
1,7,5,3h[8:2],
6,2h[8:4],6b,3b,
7,3h[8:3],7b,2b,
{16}
2,,23,,1,58,,58,
6,,58,,8,14,,14,
{32}
14,5,6,7,8,,,,
18,2,3,4,5,,,,
58,1,2,3,4,,,,
{16}4b,5,3,6,
{32}
3,2,1,,6,5,4,,
1,8,7,,4,3,2,,
7,6,5,,2,1,8,,
{16}4b,8b,3b,1h[16:3],
{32}
2b,3,4,5,6,7,8h[16:3],,
1b,2,3,4,5,6,7h[16:3],,
{16}
6b,,5,5h[16:3],
{32}4b,3,2,1,{8}8h[8:4],
4b,2,4,6h[8:4],
5,3,1,7h[8:2],
2,6h[8:4],{12}2b,2b,2b,
{8}3,7h[8:3],{12}3b,3b,3b,
{16}
6,,67,,5,14,,14,
2,,14,,4,58,,58,
{32}
58,1,2,3,4,,,,
54,6,7,8,1,,,,
14,5,6,7,8,,,,
{16}8b,1,7,2,
{32}
7,6,5,,2,1,8,,
5,4,3,,8,7,6,,
3,2,1,,6,5,4,,
{16}8,4,7,5,
{8}
5h[8:1]/6h[8:1],,7h[8:1]/8h[8:1],,3h[8:1]/4h[8:1],,1h[8:1]/2h[8:1],,
5h[8:1],4,6h[8:1]/7h[8:1],,2h[8:1]/3h[8:1],,8h[8:1]/1,1b,
{16}
5h[8:1]/4,,2,2h[16:3],8,,4b,,
4h[8:1]/5,,7,7h[16:3],1,,5b,,
17,,17,,56,17,,17,
28,,28,,34,28,,28,
{8}2h[8:1]/8h[8:1],,1h[8:1]/7h[8:1],,1/8,,
{16}1,8,1h[16:2],8h[16:1],
,,,,,,,,
,,,,
1,8,1,8,
{24}
1>4[8:1],2>5[8:1],3<6[8:1],8,7,6,
1,,,,,,
{16}
2,,1,1h[16:3],
{32}
8>3[8:1],7,6,5,4>1[8:1],,,,
{8}
7/8,5,8<5[8:1],4<7[8:1],
81,3,8,1b,
2-6[16:1]/8-4[16:1],6-2[16:1]/4-8[16:1],,,
7-3[16:1]/1-5[16:1],3-7[16:1]/5-1[16:1],,,
{16}
2/8-5[8:1],,2,,8,1,,1,
7/1-4[8:1],,7,,1,8,,8,
{8}
4>1[8:1]/8,1<6[8:1]/5,4-8[8:1]/8,,4,,1-4[8:1],4-1[8:1],
1/8-5[8:1],5-8[8:1],8,4,1h[8:4],4,5,6,
{24}
6<1[8:1],7>2[8:1],8>3[8:1],5,4,3,
6,,,,,,
{16}
6,,5,5h[16:3],
{32}
4<7[8:1],3,2,1,8<5[8:1],,,,
{8}
3/4,1,4>1[8:1],8>3[8:1],
45,7,4,5b,
6-1[16:1]/4-1[16:1],2-6[16:1]/8-4[16:1],,,
5-8[16:1]/3-8[16:1],1-5[16:1]/7-3[16:1],,,
{16}
6/4-1[8:1],,6,,4,5,,5,
3/5-8[8:1],,3,,5,4,,4,
{8}
8<5[8:1]/4,5>2[8:1]/1,8-/4,,
{24}
8<5[8:1],7<4[8:1],6>3[8:1],1,2,3,
{8}
8,,
{24}
8<5[8:1],7<4[8:1],6>3[8:1],1,2,3,
{8}
8,,1-4[8:1],7h[16:1],1,,
{8}
5h[8:1]/6h[8:1],,7h[8:1]/8h[8:1],,3h[8:1]/4h[8:1],,1h[8:1]/2h[8:1],,
5h[8:1],4,6h[8:1]/7h[8:1],,2h[8:1]/3h[8:1],,8h[8:1]/1,1b,
{16}
5h[8:1]/4-8[8:1],,2,2,4,,1b,,
1h[8:1]/8-4[8:1],,6,6,8,,5b,,
1-5[8:1]/7,,1,,1/7-3[8:1],7,,4,
7/4-8[8:1],,4,,46,6,,6,
{8}
2h[8:1]/6h[8:1],,3h[8:1]/7h[8:1],,4h[8:1]/6h[8:1],,4b/6b,,
{32}
4>1[8:1],3,2<7[8:1],,6,7<4[8:1],8,,
4,3,2,,6,,,,
{16}
2,1,8,7,62,51,48,37,
{8}
26,,37,48,15,,26,,3h[8:2]/7h[8:2],,,,2h[8:2]/6h[8:2],,,,
26,,37,48,15,,26,,3h[8:2]/7h[8:2],,,,2h[8:2]/6h[8:2],,,,
26,,1-4[8:1]/5-8[8:1],8-5[8:1]/4-1[8:1],1-6[8:1]/5-2[8:1],,,,
1h[8:2]/5h[8:2],,,,2h[8:2]/6h[8:2],,,,
26,,1-4[8:1]/5-8[8:1],8-5[8:1]/4-1[8:1],1-6[8:1]/5-2[8:1],,,,
2-7[8:1]/6-3[8:1],7-2[8:1]/3-6[8:1],2-5[8:1]/6-1[8:1],,,,,,
1b/5b,
