&title=Crazy Shuffle
&artist=Yooh
&first=0.5
&des=StageChan
&lv_5=14
&inote_1=(128)
{4},,,,
{16}
||
intro
6h[16:9],,,4,,,4,,
,3h[16:7],,,5,,5,,
4h[16:12],,,2,,,2,,
,2,,,2,,3,,
4h[16:9],,,6,,,6,,
,7h[16:7],,,5,,5,,
6h[16:12],,,8,,,8,,
,8,,,8,,,,
1-4[8:1]/7,,,7,1,,7,,
1-6[8:1],5,,,1/5,,5,,
1-5[8:1]/6,,,6,1,,6,,
1-4[8:1],6,,,6,,7,,
8-5[8:1]/2,,,2,8,,2,,
8-3[8:1],1,,,8/1,,1,,
8-5[8:1]*-3[8:1],,,,8-4[8:1],,,,
8,,,,2h[8:1],,5h[8:1],,
||
buildup
{24}
4h[24:5],,,,,7,4,,,4h[24:5],,,
,,7,4,,,4h[24:3],,,7,,2,
5h[24:5],,,,,2,5,,,5h[24:5],,,
,,2,5,,,5h[24:3],,,2,,8,
4h[24:5],,,,,8,4,,,4h[24:5],,,
,,8,4,,,4h[24:3],,,8,,1,
5h[24:5],,,,,1,5,,,5h[24:5],,,
,,1,5,,,5h[24:3],,,1,,8,
2,,4,2-4[12:1],,4,2,,4,2,,,
7,,5,7-5[12:1],,5,7,,5,7,,,
1,,5,1-5[12:1],,5,1,,5,1,,,
8,,4,8-4[12:1],,4,8,,4,8,,,
1-5[8:1],,,2/8-4[8:1],,,1/7,,,8,,,
3-8[8:1],,,1/7-4[8:1],,,3/5,,,7,,,
1,,8,1,,8-5[8:1],1-4[8:1],,8,1,,,
,,,,,,3bqq8[4:1]/7b,,,1b/5b,,,
||
drop1
{8}
3<6[8:1]/7,5,3qq8[4:1],1,
3<6[8:1],5,3qq7[4:1],1,
3<6[8:1],5,3qq7[4:1],1,
3,5,6pp1[4:1],2h[8:1],
6>3[8:1],4,6pp1[4:1],8,
6>3[8:1],4,6pp2[4:1],8,
6>3[8:1],4,6,8,
1-5[8:1]/7,5-1[8:1]/3,7qq4[4:1],,
7>2[8:1],1,7qq4[4:1],5,
7>2[8:1]/3,1,7qq3[4:1],5,
7>2[8:1]/3,1,7qq3[4:1],5,
7/3,1-6[12:1],2pp5[4:1],1b,
2<7[8:1],8,2pp5[4:1],4,
2<7[8:1]/6,8,2,4,
{16}2h[16:3]/6,,,4h[16:3],,,5h[16:3],,
,7h[16:3],,,1h[16:2],,8,,
{8}
2pp7[4:1]/7,4/5,2b<5[16:3]/7b,,
2pp6[4:1],4,2<5[16:3],8,
2pp5[4:1],4,2<5[16:3],8,
2z6[8:1],4,2b,,
7qq2[4:1],3,7>4[16:3],1,
7qq3[4:1],5,7>4[16:3],1,
7qq4[4:1],5,7>4[16:3],1,
7-3[12:1],5s1[8:1],,,
6pp1[4:1],2,6>2[12:2],4,
6qq3[4:1],8,6<2[12:2],8,
6pp1[4:1],4,6,4,
4-7[12:1]*-1[12:1],8-4[12:1],,,
3qq8[4:1]/7,37,3<7[12:2]/7,5,
3pp6[4:1],1,3,1,
{16}7h[16:3],,,5h[16:3],,,4h[16:3],,
,2h[16:3],,,8h[16:2],,1,,
||
verse
{4}5w1[8:5],,
,,
{48}7/2-6[12:1],,,,,,,,,7,,,2,,,,,,7,,,,4,,
,,,7,,,4,,,,,,7/4,,,,,,6,,,,,,
5/3-7[12:1],,,,,,,,,5,,,3,,,,,,5,,,,1,,
,,,5,,,1,,,,,,{8}8-3[8:1]*-5[8:1]/4,8,
8-4[8:1],,8/4-7[8:1]*-1[8:1],,
4,,8h[24:2],8h[24:2],
{48}3/8-4[12:1],,,,,,,,,3,,,8,,,,,,3,,,,6,,
,,,1,,,6,,,,,,1/6,,,,,,1,,,,,,
2/7-3[12:1],,,,,,,,,2,,,7,,,,,,2,,,,5,,
,,,2,,,5,,,,,,2/5,,,,,,3,,,,,,
4/6-2[12:1],,,,,,,,,4,,,6,,,,,,4,,,,8,,
,,,4,,,8,,,,,,{8}1-3[8:1]*-7[8:1],1,
1-4[8:1]*-6[8:1],,1-5[8:1],,
1,,2h[8:1],5h[8:1],
||
buildup2
{24}
4h[24:5],,,,,7,4,,,3h[24:5],,,
,,7,3,,,2h[24:3],,,7,,1,
5h[24:5],,,,,2,5,,,6h[24:5],,,
,,2,6,,,7h[24:3],,,2,,8,
4h[24:5],,,,,8,4,,,3h[24:5],,,
,,8,3,,,2h[24:3],,,8,,1,
5h[24:5],,,,,1,5,,,6h[24:5],,,
,,1,6,,,7h[24:3],,,1,,8,
3,,4,2-5[12:1],,5,3,,4,2,,,
6,,5,7-4[12:1],,4,6,,5,7,,,
2,,4,1-5[12:1],,5,2,,4,1,,,
7,,5,8-4[12:1],,4,7,,5,8,,,
2-5[8:1],,,7-4[8:1]/8,,,1/2,,,7,,,
3-6[8:1],,,7-2[8:1]/1,,,3/5,,,7,,,
5,,,5,,,5,,,5,,,
5,,,5-1[12:1],,,5,,,,,,
||
predrop
3-6[8:1]*-5[8:1],,3,7,,,3b,,,,,,
2-7[8:1]*-8[8:1],,2,6,,,2b,,,,,,
1b-5[8:1],,,,,,1bw5[8:1],,,,,,
1b,,,,,,2bpp5[4:1]/6b,,,4b/8b,,,
||
drop2
{8}
2<6[12:2]/6,8,2pp5[4:1],4,
2<6[12:2],8,2qq7[4:1],4,
2>6[12:2],4,2qq6[4:1],8,
2,,7qq4[4:1],3h[8:1],
7>3[12:2],1,7qq4[4:1],5,
7>3[12:2],1,7pp2[4:1],5,
7<3[12:2],5,7pp3[4:1],1,
7,3,2p7[4:1],1b,
2<5[16:3],8,2p7[4:1],4,
2<5[16:3],8,2,4,
{16}2h[16:3],,,4h[16:3],,,5h[16:3],,
,7h[16:3],,,2q5[4:1],,45,,
{8}
2<6[12:2],8,2p7[4:1],4,
2>6[12:2],4,2q5[4:1],8,
2<6[12:2],8,2p7[4:1],4,
2,4,6bq1[4:1],,
6>2[12:2],4,6p3[4:1],8,
6<2[12:2],8,6q1[4:1],4,
6>2[12:2],4,6p3[4:1],8,
6,,2q4[4:1],6h[8:1],
2<5[16:3],8,2p8[4:1],3,
2>7[16:3],4,2q4[4:1],1,
2<5[16:3],8,2-6[8:1],3,
2,8h[8:1],{12}6bq8[4:1],5b,4b,{8}
6>1[16:3]/3b,4,6p4[4:1],7,
6<3[16:3],8,6,5,
{16}7h[16:3],,,5h[16:3],,,4h[16:3],,
,2h[16:3],,,1w5[12:1],,46,,
||
NG
||
3>7[12:2],,
||
3q6[4:1],5,3<7[12:2],1,
3p8[4:1],1,3>7[12:2],5,
||
3q6[4:1],5,3<7[12:2],1,
3,,
||
end
1b,,,,,,,,,,,,
,,,,,,,,,,,,
E
&inote_5=(128)
{4},,,,
{16}
||
intro
6h[16:9],,,4,,,4,,
,3h[16:7],,,5,,5,,
4h[16:12],,,2,,,2,,
,2,,,2,,3,,
4h[16:9],,,6,,,6,,
,7h[16:7],,,5,,5,,
6h[16:12],,,8,,,8,,
,8,,,8,,,,
1-4[8:1]/7,,,7,1,,7,,
1-6[8:1],5,,,1/5,,5,,
1-5[8:1]/6,,,6,1,,6,,
1-4[8:1],6,,,1/6,,7,,
8-5[8:1]/3,,,3,8,,3,,
8-4[8:1],1,,,8/1,,1,,
8-5[8:1]*-3[8:1],,,,8-4[8:1],,,,
8,,,,2h[8:1],,5h[8:1],,
||
buildup
{24}
4h[24:5],,,,,7,4,,,4h[24:5],,,
,,7,4,,,4h[24:3],,,7,,2,
5h[24:5],,,,,2,5,,,5h[24:5],,,
,,2,5,,,5h[24:3],,,2,,8,
4h[24:5],,,,,8,4,,,4h[24:5],,,
,,8,4,,,4h[24:3],,,8,,1,
5h[24:5],,,,,1,5,,,5h[24:5],,,
,,1,5,,,5h[24:3],,,1,,8,
2,,4,2-4[12:1],,4,2,,4,2,,,
7,,5,7-5[12:1],,5,7,,5,7,,,
1,,5,1-5[12:1],,5,1,,5,1,,,
8,,4,8-4[12:1],,4,8,,4,8,,,
1-5[8:1],,,2/8-4[8:1],,,1/7,,,8,,,
3-8[8:1],,,1/7-4[8:1],,,3/5,,,7,,,
1,,8,1,,8-5[8:1],1-4[8:1],,8,1,,,
,,,,,,3bqq8[4:1]/7b,,,1b/5b,,,
||
drop1
{8}
3<6[8:1]/7,5,3qq8[4:1],1,
3<6[8:1],5,3qq7[4:1],1,
3<6[8:1],5,3qq7[4:1],1,
3,5,6pp1[4:1],2h[8:1],
6>3[8:1],4,6pp1[4:1],8,
6>3[8:1],4,6pp2[4:1],8,
6>3[8:1],4,6,8,
1-5[8:1]/7,5-1[8:1]/3,7qq4[4:1],,
7>2[8:1],1,7qq4[4:1],5,
7>2[8:1]/3,1,7qq3[4:1],5,
7>2[8:1]/3,1,7qq3[4:1],5,
7/3,1-5[12:1],2pp5[4:1],1b,
2<7[8:1],8,2pp5[4:1],4,
2<7[8:1]/6,8,2,4,
{16}2h[16:3]/6,,,4h[16:3],,,5h[16:3],,
,7h[16:3],,,1h[16:2],,8,,
{8}
2pp7[4:1]/7,4/5,2b<5[16:3]/7b,,
2pp6[4:1],4,2<5[16:3],8,
2pp5[4:1],4,2<5[16:3],8,
2z6[8:1],4,2b,,
7qq2[4:1],3,7>4[16:3],1,
7qq3[4:1],5,7>4[16:3],1,
7qq4[4:1],5,7>4[16:3],1,
7,5s1[8:1],7h[8:1],,
6p3[4:1],2,6>1[16:3],4,
6p3[4:1],8,6>1[16:3],4,
6p3[4:1],8,6,4,
4-7[12:1]*-1[12:1],8-4[12:1],,,
3q6[4:1],15,3<8[16:3]/7,5,
3q6[4:1],1,3,6,
{16}7h[16:3],,,5h[16:3],,,4h[16:3],,
,2h[16:3],,,8h[16:2],,1,,
||
verse
{4}5w1[8:5],,
,,
{48}
7/2-6[12:1],,,,,,,,,7,,,2,,,,,,7,,,,4,,
,,,7,,,4,,,,,,7/4,,,,,,6,,,,,,
5/3-7[12:1],,,,,,,,,5,,,3,,,,,,5,,,,1,,
,,,5,,,1,,,,,,{8}8-3[8:1]*-5[8:1]/4,8,
8-4[8:1],,8/4-7[8:1]*-1[8:1],,
4,,8h[24:2],8h[24:2],
{48}
3/8-4[12:1],,,,,,,,,3,,,8,,,,,,3,,,,6,,
,,,1,,,6,,,,,,1/6,,,,,,1,,,,,,
2/7-3[12:1],,,,,,,,,2,,,7,,,,,,2,,,,5,,
,,,2,,,5,,,,,,2/5,,,,,,3,,,,,,
4/6-2[12:1],,,,,,,,,4,,,6,,,,,,4,,,,8,,
,,,4,,,8,,,,,,{8}1-3[8:1]*-7[8:1],1,
1-4[8:1]*-6[8:1],,1-5[8:1],,
1,,{24}8,7,6,1,2,3,
||
buildup2
{24}
5h[24:5],,,,,2,5,,,6h[24:5],,,
,,2,6,,,7h[24:3],,,2,,8,
4h[24:5],,,,,7,4,,,3h[24:5],,,
,,7,3,,,2h[24:3],,,7,,1,
5h[24:5],,,,,1,5,,,6h[24:5],,,
,,1,6,,,7h[24:3],,,1,,8,
4h[24:5],,,,,8,4,,,3h[24:5],,,
,,8,3,,,2h[24:3],,,8,,1,
6,,5,7-4[12:1],,4,6,,5,7,,,
3,,4,2-5[12:1],,5,3,,4,2,,,
7,,5,8-4[12:1],,4,7,,5,8,,,
2,,4,1-5[12:1],,5,2,,4,1,,,
7-4[8:1],,,2-5[8:1]/1,,,8/7,,,2,,,
6-3[8:1],,,2-7[8:1]/8,,,6/4,,,2,,,
4,,,4,,,4,,,4,,,
4,,,4-8[12:1],,,4,,,,,,
||
predrop
3-6[8:1]*-5[8:1],,3,2,,,3b,,,,,,
2-7[8:1]*-8[8:1],,2,3,,,2b,,,,,,
1b-5[8:1],,,,,,1bw5[8:1],,,,,,
1b,,,,,,2bpp5[4:1]/6b,,,4b/8b,,,
||
drop2
{8}
2<6[12:2]/6,8,2pp5[4:1],4,
2<6[12:2],8,2qq7[4:1],4,
2>6[12:2],4,2qq6[4:1],8,
2,,7qq4[4:1],3h[8:1],
7>3[12:2],1,7qq4[4:1],5,
7>3[12:2],1,7pp2[4:1],5,
7<3[12:2],5,7pp3[4:1],1,
7,3,2p7[4:1],1b,
2<5[16:3],8,2p7[4:1],4,
2<5[16:3],8,2,4,
{16}2h[16:3],,,4h[16:3],,,5h[16:3],,
,7h[16:3],,,2q5[4:1],,45,,
{8}
2<6[12:2],8,2p7[4:1],4,
2>6[12:2],4,2q5[4:1],8,
2<6[12:2],8,2p7[4:1],4,
2,4,6bq1[4:1],,
6>2[12:2],4,6p3[4:1],8,
6<2[12:2],8,6q1[4:1],4,
6>2[12:2],4,6p3[4:1],8,
6,,2q4[4:1],6h[8:1],
2<5[16:3],8,2p8[4:1],3,
2>7[16:3],4,2q4[4:1],1,
2<5[16:3],8,2-6[8:1],3,
2,8h[8:1],{12}6bq8[4:1],5b,4b,{8}
6>1[16:3]/3b,4,6p4[4:1],7,
6<3[16:3],8,6,5,
{16}7h[16:3],,,5h[16:3],,,4h[16:3],,
,2h[16:3],,,{24}1w5[12:1],8,7,46,3,2,
||
NG
||
3>7[12:2],,
||
3q6[4:1],5,3<7[12:2],1,
3p8[4:1],1,3>7[12:2],5,
||
3q6[4:1],5,3<7[12:2],1,
3,,
||
end
{4}1b,,
E
