&title=ReDreaming Angel
&artist=三Z-STUDIO
&first=-2.92
&des=ReDreaming EY
&demo_seek=47.85
&lv_5=14
&des_5=ReDreaming EY
&inote_5=
(156){4},{8},,,,,,,,,,,,,,2h[8:1],
1h[8:1],8h[8:1],7,,B3/E4/A3,B4/E5/B5,E6h[1:1]/B6h[1:1]/A6h[1:1],
,E8,E1,E2,E3,E4,E5,C,
,E8/Ch[4:1],E7,E6,,E2/Ch[4:1],E3,E4,
,E6,E7/C,E8,E1/C,E2,E3/C,E4,
8/1h[8:1],7h[4:1],,2h[2:1],,8,7,6h[1:1],
,1,2,3,4,4,5,3h[2:1],
,4,6,8,,7/2,1q5[8:1]/6-2[8:1],8/3,
{4}1b/6b,{8}8b/4b,3bp6[8:1]/7b>8-4[8:1],,7b/3b,A4/E5/A6/D7/E6/D4,B8/E8/B2/B3/B7/E3,
{2}8xh[4:1]/2xh[2:1],{8}1,4/8-4[8:1],7/5,8/4-8[8:1],
,4/8-4[8:1],,8/4,,2/6,A5/E5/A3/E4,B1/E2/B7/B6/B2/E7,
{2}1xh[4:1]/7xh[2:1],{8}8,5/1-3-5p1[2:1]*-7-5q1[2:1],3/7,1,
,D6/A5/D5,,,,6/2,A1/E1/A7/E8,B5/E6/B3/B2/B6/E3,
{2}3xh[2:1]/5xh[4:1],{8}4,1/5-8[8:1],6/8,5/1-4[8:1],
,5-7[8:1]/1-3[8:1],,5/1-5-1[4:1],,1/5,,,{4}3<7[8:1]/7>3[8:1],
7/3,{8},1p5[8:1]/5p1[8:1],,1/5,
,E3h[8:3]/E7h[8:3]/Ch[8:3],,,,3/6,8-4b[8:1]/1-5b[8:1],7/2,
{4}8<5[8:1]/1>4[8:1],8/1,{8}1/3,2/4-8[8:1],5/3,4/5-1[8:1],
,5/6-2[8:1],,7/6,,8/1,{4}4q1b[8:1]/5p8b[8:1],
4>1[8:1]/5<8[8:1],4/5,{8}5/7,6/8w4[8:1],1/7,8,
,B1/B2,{16}E3/B3,E4/B4,B8/E8,B7/E7,{8}B6/E6,4/5,7/2-6b[8:1],6/3,
{4}2/7q4[8:1]*v4[8:1],7,{8}5/3,2/6p8[8:1],1/7,6/2v5[8:1],
,2/7v4[8:1]*<4[8:1],,7,,3,{4}2-8[8:1]/6-8[8:1],
2pp4[8:1]/6qq4[8:1],2/6,{8},8z4[8:1]/1s5[8:1],,1/8,
,B3/B2/E3h[4:1],,B7/B6/E7h[8:3],,,{4}Cf,
{8}E8,E7,E6,E5h[8:5],,E4,,,E2,
E3,E4,E5h[8:5],,,,,E6,
E7,E8,E1h[8:5],,E2,,,E8,
E2/E7,E6/E3,E4/E5,{16}A5/A3,D3/D6,{8}A2/A6,{4}1b/7b,
{8}6x/2x,2/6,3/7,3/7,4x/8x,4/8,1/5,1x/5x,
1/2,1/2,3x/4x,3x/4x,6/5,6x/5x,8/7,8x/7x,
{16}8/7,1,6,2,5,3,4,2,1,3,8,4,7,5,6,4,
5h[8:1],4h,4h[16:1],5h[16:1],{8}4h[4:1],5h,5h[8:1],4h[8:1],5h,8/1h[4:1],
6p2[8:1],7,6/3p6[8:1],4,{4}3/8q4[8:1],{8}8/4<8[0.1885##0.3808],Ch[4:1],
,,8/1,2v3[8:1]/7v6[8:1],5/4,2/7<7[2:1]*-5-3-1-7[2:1],,7h[2:1],
A5,A3,{4}A1,{8}8/2h[4:1],5,7,4/6h[8:3],
1,3,2,8v5[8:1]/1s5[8:1],6/3,1/8,,1/8h[4:1],
3-7[8:1],2,3/6q3[8:1],5,{4}6/1p5[8:1],{8}1/5>1[0.1885##0.3808],Ch[4:1],
,,1/8,7q6[8:1]/2p3[8:1],4/5,7/2>2[2:1]*-4-6-8-2[2:1],,2h[2:1],
A4,A6,{4}A8,{8}1/7,4,2/8z4[8:1]*-5[8:1],5,
{4}8,{8}2/7,8/1>2v7>1[8:1],3/6,8/1h,,6/3,
1v4[8:1],2,1/8q5[8:1],7,8/2-6z2[8:3],3,2/6,Ch[4:1],
,,1/3,4v1[8:1]/8v5[8:1],,4/8,,2pp6[2:1]/6pp2[2:1],
,,,,Cf,,,1-5[1.15##0.3808],
{16},,1p5[0.7654##0.3808],1q5[0.6731##0.3808],1p4[0.5731##0.3808],1q6[0.4808##0.3808],1w5b[4:1],1v6[0.2885##0.3808],1v4[0.1885##0.3808],1s5[0.0962##0.3808],{8}1b,,,5x/4x>1[8:1],
6,4/7,5<8[8:1],3,5/4>8-2-4[8:5],,4,
{4}E6h[8:1],{8}E7,E8h[8:1],,1s5[8:1],,8/1,
7-3[8:1],2-6[8:1],7,2p5[8:1],8,2<8<7<5>4>2[8:3],7,2/Ch[8:3],
,,,2x/6,,7/3,{4}5h[8:1]/1h[8:1],
{8}6/2,4/8-6[8:1]*-5[8:1],6/2,8-3[8:1]*-2[8:1],,8-4[8:1],,8<5[8:1]*>3[8:1],
,8-4[8:1]*w4[8:1],{16},,A8/E8/E1,Cf/B6/B2/B5/B3/B4,,,,,{4}2h[8:1]/6h[8:1],
{8}3/7,5/1-3[8:1]*-4[8:1],3/7,1-6[8:1]*-7[8:1],,1-5[8:1],,1>4[8:1]*<6[8:1],
,1-5[8:1]*w5[8:1],{16},,A1/E1/E2,Cf/B3/B7/B6/B5/B4,,,,,{8}3/7,1/5,
2/6,4>1[8:1]/8<5[8:1],6/2,4-8[8:1]/8-4[8:1],,4-7[8:1]/8-3[8:1],,4/8,
,2x/6x,5/1,8/4,7/3,2/6,1/5,8/4,
{16}7,6,5,4,3/7,2/6,1/5,4/8,3,2,1,8,3/7,2/6,5/1,4/8,
{1}E3h[8:1]/E7h[4:1]/B7h[8:3]/B3h[2:1]/B2h[8:5]/B6h[4:3]/Ch[8:7],
{16}6b/3b,5,5,5,5,5,5,5,2b/7b,5,4>3-1<8b[8:1],6,3,5,4bxv7b[8:1],7,
6,5,4bx,3,2,1,6,3,{8}8b/1b,E8/E2/E1,B6/C/B3,A5/A4/E5,
{16}2b/7b,1,1,1,1,1,1,1,6b/3b,1,8<6-4b[8:1],2,7,1,8bxp3b[8:1],3,
2,1,8bx,7,6,5,2,7,{8}4b/5b,A5/E5/A4,C/B6/B3,E8/E2/E1,
{16}6b/3b,4,5,4,6,4,5,4,2b/7b,3,6-3-8-5-1-6b[2:1],1,8,3,{8}6bx,
E3f/B2/B3,E7f/B6/B7,A1f/E1/E2,A6f/E7/E6,8b/1b,E2/E8/E1,E5/E6/E4,{32}8b/1b,7/2,3/6,5bh[32:1]/4bh[32:1],
,6/3,7/2,8bh[32:1]/1bh[32:1],,2/7,3/6,4h[32:1]/5h[32:1],,,,,{8}6/3,8b/1b,4q1b[8:1]/5v8b[8:1],7b/2b,5bx<6<7>8b[8:1]/4bx>3>2<1b[8:1],
,5bx/4bx,,7/2,5b/4b,B6/B5/B3/B4/E5,B7/B2/A2/A7,E1,
7b/2b,,,B3/B4/D4/A3,,,,A8/B8/D8,
,B2/B3/D3,,A6/A5/D6/B6/B5,,1,2/8,3/7,
4xh[4:1]/6xh[2:1],,,3,5,8/4p8[8:1],3/1,4/8<7-4[8:1],
,8/4>3-1<8[8:1],,4/8,,3/7>2v4[4:1],6/5,7/4,
,,{4}5x/3xh[4:1],{8}4,1/5v8[8:1],6/8,5/1v4[8:1],
,5<8[8:1]/1>4[8:1],,5/1-6-4-8[8:3],,1/5,A6,A4,
{4}E7h[8:1],Ch[8:1]/E3h[8:1]/E7h[8:1],{8},1/8-4[8:1],7,8/1-5[8:1],
,1/8q4[8:1]*v3[8:1],,8,,7/2,4-8b[8:1]/5-1b[8:1],3/6,
{4}4qq3[8:1]/5pp6[8:1],4/5,{8}5/7,6/8-4[8:1],1/7,8/1-5[8:1],
,1/2-6[8:1],,3/2,,4/5,{4}8z4b[8:1]/1s5b[8:1],
8<5[8:1]/1>4[8:1],8/1,{8}1/3,2/4w8[8:1],5/3,4,
,B5/B6,{16}E7/B7,E8/B8,B4/E4,B3/E3,{8}B2/E2,8/1,3/6p1b[8:1],2/7,
{4}6/3v4[8:1]*p5[8:1],3,{8}1/7,6/2v4[8:1],5/3,2/6p1[8:1],
,6/3v8[8:1]*-8[8:1],,3,,7,{4}6v4[8:1]/2pp4[8:1],
6pp8[8:1]/2v8[8:1],6/2,{8},4q1[8:1]/5p8[8:1],,5/4,
,B7h[8:1]/B6h[8:1]/E7h[4:1],,B2h[8:1]/B3h[8:1]/E3h[8:3],,,{4}Cf,
{8}5x,E6/E5,E7/E4,E8/E3/Ch[8:3],,,{4}E1/E2,
{8}3x,E3/E4,E2/E5,E1/E6/Ch[8:3],,,,,1x,
E1/E2/B1,E8/C/E3,B6/B4/E4/E7/B5h[8:3],,,{4}A6/D6/A5/D5/A4,
{8}7x,E7/E8/B7,E6/C/E1,B4/B2/E2/E5/B3h[4:1],,,{4}2b/4b,
{8}1x/8x,1/8,7/6,7/6,5x/4x,5/4,2/3,2x/3x,
8/1,7/8,7x/6x,6x/5x,5/4,4x/3x,3/2,2x/1x,
{16}8,2,7,1,6,4,5,3,7,2,5,1,8,3,{8}5bh[1:1],
,,,,,,,4bw8b[0##4.8077]*-1b[0##4.8077]*-8b[0##4.8077]*-7b[0##4.8077],
{1},,,{16},D2,
A2,D7/D3,A3/A6,D4/D6,{8}4xv1[8:1]/5xs1[8:1],2/7,5/4,,5/4h[4:1],
7-3[8:1],6,7/2p6[8:1],1,{4}2/5p1[8:1],{8}5/1<8-6>5[0.1885##0.3808],Ch[4:1],
,,5/4,3-7[8:1]/6-2[8:1],8/1,3/6<7-1-3-5<6[2:1]*-8-2-4-6[2:1],,6h[2:1],
A8,A2,{4}A4,{8}5/3,7,4z8[8:1]/5-8[8:1],2,
{4}4/5,{8}7/2,1/8<7v2<8[8:1],6/3,1/8h,,2/7,
5p8[8:1],6,5/4v1[8:1],3,4/6-2z6[8:3],7,6/2,Ch[4:1],
,,5/7,8-5[8:1]/4-1[8:1],,8/4,,6pp2[2:1]/2pp6[2:1],
,,,,Cf,,,8-4[1.15##0.3808]*-4[1.15##0.3808],
{16},,8p4[0.7654##0.3808]*q4[0.7654##0.3808],8q5[0.6731##0.3808]*p3[0.6731##0.3808],8v5[0.5731##0.3808]*v3[0.5731##0.3808],8s4[0.4808##0.3808]*p4[0.4808##0.3808],8w4b[4:1],8-5>4[0.2885##0.3808]*-3<4[0.2885##0.3808],8<7-4[0.1885##0.3808]*>1-4[0.1885##0.3808],8>1-3<4[0.0962##0.3808]*<7-5>4[0.0962##0.3808],{8}8b,,,1x/8x<5[8:1],
2,8/3,1>4[8:1],7,1/8-6-4<5-7>8[8:5],,8,
{4}E2h[8:1],{8}E3,E4h[8:1],,5s1[8:1],,4/5,
3-7[8:1],6-2[8:1],3,6p1[8:1],4,6>4>3>1<8<6[8:3],3,6/Ch[8:3],
,,,2/6x,,3/8,{4}4h[8:1]/7h[8:1],
{8}3/8,1-5[8:1]/2-4[8:1],8/3,1-7[8:1]/2-6[8:1],,1q5[8:1]/2>4[8:1],,2p6[8:1]/1<7[8:1],
,1w5[8:1]/2w6[8:1],{16},,A1/D2/A2,Cf/B3/B7/B8/B4/B6/B5,,,,,{4}5h[8:1]/2h[8:1],
{8}6/1,8-4[8:1]/7-5[8:1],1/6,8-2[8:1]/7-3[8:1],,8p4[8:1]/7<5[8:1],,7q3[8:1]/8>2[8:1],
,8w4[8:1]/7w3[8:1],{16},,A8/D8/A7,Cf/B6/B2/B1/B5/B4/B3,,,,,{8}6/2,8/4,
7/2,5-7[8:1]/4-8[8:1],2/7,5-1[8:1]/4-2[8:1],,5w1[8:1]/4w8[8:1],,5/4,
,6/3,2/7,1/8,2/7,6/3,5/4,2/6,
{32}3/7h[4:1],4,5,6,,8,1,2,3h[4:1],6,5,4,,2,1,8,7h[4:1],4,5,6,,8,1,2,3h[8:1],6,5,4,,2,1,8,
{1}E7h[8:1]/E3h[4:1]/B2h[8:3]/B6h[2:1]/B7h[8:5]/B3h[4:3]/Ch[8:7],
{16}3b/6b,4,4,5,5,3,3,6,7b/2b,4,7v4b[8:1],2,5,3,7bxq6b[8:1],8,
1,2,3bx/7bx,4,5,4,3,2,{8}1b/8b,E2/E8/E1,B3/C/B6,A4/A5/E5,
{16}7b/2b,8,8,1,1,7,7,2,3b/6b,8,3v8b[8:1],6,1,7,3bxq2b[8:1],4,
5,6,7bx/3bx,8,1,8,7,6,{8}5b/4b,A4/E5/A5,C/B3/B6,E2/E8/E1,
{16}3b/6b,5,4,6,3,5,4,6,7b/2b,6,3-6-1-4-8-3b[2:1],7,1,6,{8}3bx,
E7f/B7/B6,E3f/B3/B2,A8f/E1/E8,A3f/E3/E4,1b/8b,E6/E4/E5,E1/E8/E2,{32}4b/5b,3/6,7/2,1bh[32:1]/8bh[32:1],
,2/7,3/6,4bh[32:1]/5bh[32:1],,6/3,7/2,8h[32:1]/1h[32:1],,,,,{8}2/7,4b/5b,8q5b[8:1]/1v4b[8:1],3b/6b,1bx>2>3<4b[8:1]/8bx<7<6>5b[8:1],
,1bx/8bx,,3/6,1b/8b,Ch[8:19],E7,E8,
E1,E2,E3,E4,E5,E6,D7,D8,
D1,D2,D3,D4,D5,D6,D7,D8,
{1}D1,
E
