&title=嬢王
&artist=八王子P feat. 初音ミク
&first=0
&des=Yuki x Zamykal
&clock_count=4
&lv_5=14
&inote_5=(200)
{1}
,,
{8}
4,4h[4:3],B5,,B3,,B1,,8,8h[8:3],E4,E3,E2,,,,
1,1h[8:3],5,6,7h[2:1],,4z8[1:1],,
{24}
B7,C,B3,
{8}
,,,,,,,
6bh[2:1],,4,4,3,3h[8:3],5,6,7-5[4:1],,,4,4x>1[4:1],4x,5,6,7-3[8:1],,8,8,1-5[8:1],,2,2,
{16}
3,4,3,4,2,5,2,5,
{8}
1x<6[8:1],1,5-8[8:1],5,4b,,
3,3h[2:1],4,5-7[8:1],,,2<7[4:1],,7>4[8:3],,5,6h[4:1],,,7-5[8:1],,4,,2-4[8:1],,6,8<5[4:1],,5>7[2:1],4,3h[8:3],,,,,C,,6h[4:1],5,5h[2:1],,4,,4h[2:1],,3,2,1-5[8:1],,,,7,5/6,2,3/4,5/7,2/4,3/8h[4:1],,4h[1:1],,5x,,E6f,E7f,E8f,E1f,2b<5[4:1],,4-8[8:1],3,4
,,5,5V71[4:1],,2,3,4,4-8[8:1],,C,,7b-3[8:1],6,7/2>5[8:1],1,2/8-3[8:1],,8,2-6[8:1],4b-7[8:1],2,4,1,2/8,1b/7b,8-3[8:1]*-5[8:1],,8b,,2>4[8:1],4-8[8:1],2,,6,6-8p4[4:1],,3,4,2,1-3[8:1]*-7[8:1],,1b-5[8:1],,1b/6b,6,4/7,8,1/5,1/5,4/8,3/7,2b/6b,2/6,1/5,1/5,
{32}
4/8,7,6,5,4,3,2,1,8,7,6,5,4,3,2,1,
{8}
6bh[1:1]/8b,,,,E5,,E4,,2,2h[8:5],7,,8xh[1920:1],8xh[1920:1],1h[4:1],,3,4/8,7,3/6,5,2/4,3/5,4/6,
{16}
3,7,3,7,2,8,2,8,
{4}
1>4[8:1],1xp5[8:1]/5xp1[8:1],1b/5b`Cf,
{12}
7h[4:1],,,6,,6,5h[4:1],,,4,,,2,,2,6,5,7,3h[4:1],,,4bh[4:1],,,2,,2,3,,3,4h[4:1],,,
{8}
7-5[8:1],5-8[8:1],7/8-4[8:1],4>6[8:3],2xh[4:1],,,,
{12}
1bx,1,5h[4:1],,,2,4,3,5h[4:1],,,4,6,,6,7,,7,8,,,
{8}
8,1,1-5[4:3],,7,,3,,6,,4x,,,,
{16}
8,,8,1,,1,7h[8:1],,
{16}2h[8:1],,5h[8:1],,3,3,4,,2-5[8:1]/5,,6,,2/7-4[8:1],,8,,
{16}3/7,,2,,1-5[8:1],,2/8,,1,,,,4/6,,3/7,,
{16}7h[8:1],,4h[8:1],,6,6,5,,7-4[8:1]/4,,3,,7/2-5[8:1],,1,,
{16}6/2,,7,,8h[8:1],,1,,2/7-4b[8:1],,3x,2x,1b/7b,,1,,
{16}1x/5x,,2,,6,6,3,,5/7-3[8:1],,,,1/7,,,,
{16}2/4,,2,,2-6[8:1]/8,,2,,2/6,,,,5-1[8:1]/7,,,,
{16}5/7,,4,,2-6[8:1]/5,,1,,2/8,,B8,C,B4,,,,
{16}3,5,3,5,2,6,2,6,1,7,1,7,8-4b[8:1],8,8,8,
{1}8b`Cf,,,,
(150)
{16}3h[1:1]/5,,,,,,4,,5,,6,,7,,7x,6,
{16}5h[8:3],,,,,,3,4,2h[8:1],,6,5,7h[8:1],,4,3,
{16}2h[2:1],,,,,,8,7,6h[8:1],,3,2,1h[8:1],,7,6,
{16}5h[2:1],,,,,,1,2,3h[8:1],,6,6,3,2,1,,
{12}1/5,,1,5,,2,6,,3,7,,4,8/4,8,4,7,,3,6,,2,5,,5,
{12}1xq3[2:1]/5,1,1,1,,,3>8[4:1],,,5,6,7,
{12}7x,6x,1x,2x-5[8:1]/4x,,6,2,,,5/7,,,
{12}8/4,,8,4,,7,3,,6,2,,5,1/5,1,5,2,,6,3,,7,4,,4,
{12}8xp6[2:1]/4,8,8,8,,,6<1[4:1],,,4,3,2,
{12}2x,3x,8x,7x-4[8:1]/5x,,3,7,
,2,,4/2,,
{12}2,4,3,5,4,6,6,5,7,3,4,2,
(160)
{12}8,7,6,1,2,3,E6,E7,E8,E4,E3,E2,
(170)
{12}5,5,4,6,4,6,3,3,5,2,5,2,
(180)
{12}7,5,6,3,5,4,4/5,,,4-1[8:1]/5-8[8:1],,,
(185)
{16}4/5,,,,2-5b[8:1]/7,,,,2/8-4b[8:1],,,,1-5b[8:1]/8,,,,
(190)
{16}1/6-8b[8:1],,,,4-2b[8:1]/6,,,,1-5b[8:1]/4,,,,1/2,,,,
(195)
{16}3/4,,2,,5/6,,7,,3/4,,2,,5/6,,7,,
(200)
{16}1,8,1,8,2,7,2,7,3,3,6,6,4,4,5,5,
{1}Cf,
{8}
2h[4:1],,5,6h[4:1],,3h[4:1],,7,8-4[8:1],,Cf,
{16}
,,5-1[8:1],,3,,5,,2,3,4h[4:1]/8-6[8:1],,,,8,,2,2,4,,3/5,,2b-5[8:1],,1,,2b,,,,8h[8:1],,5,7,1h[8:1],,4,3,8h[8:1],,4,6,1b,,2/8,,8p3[8:1],,17,,6/8q5[8:1],,,,2b/8b>3[8:1]*<5[8:1],,,,8b,,,,4,,6,5,7,,3/4,,2,,2,4,3h[4:1],,,,8,,5,7,4,6,3,5,2b-6[8:1],4,1,,2b,,,,8,,2,3,4/6h[8:1],,1,,3h[8:1]/5,,8,,7b,4,7,4,6,3,6,3,5,2,6,3,7,4,6,3,
{4}
5bh[8:3],2bh[8:1],3bh[8:1]/6bh[8:1],4bh[8:1]/7bh[8:1],
{8}
3/6,5,4,3h[8:3]/6h[8:3],,,,,2/5,3,4/7,6,
{32}
2x/5<8[8:1],E2,E1,E8,
{8}
,
{32}
2x,E3,E4,E5,
{8}
,1/5,4/8,3/7,2x/6x,
{16}
1xp5[8:1]b/5xp1[8:1]b,2x/6xh[1920:1],3xh[1920:1]/7x,4x/8xh[1920:1],1x/5xh[1920:1],,,,
{8}
2/6,2/6,3/7,4/8,1/5,1/5,4/8,3/7,6/E2,6,4/B7,4,8/B3,8,2/B6,2,
{16}
5,1,5,1,6,2,6,2,7,5,8,3,4,1,6,5,
{8}
4h[4:1]/7,,8,8h[4:1],,2h[4:1],,5,4b/6b,,
{16}3-1b[8:1]/4,,5,,3,,6,,7x/2>4b[8:1],,1,,
{16}2/5-1b[8:1],,6,,7-3b[8:1]/5x,,,,8<5b[8:1]/7,,,,2/8,,,,
{32}1b/5b,2/6,3/7,,,,,,4b/8b,3/7,2/6,,,,,,
{32}1b/5b,2/6,3/7,,,,,,4b/8b,3/7,2/6,,,,,,
{16}2b-7b[8:1]/6b-3b[8:1],,,,2b/6b,,,,4bh[8:1]/8bh[8:1],,,,5b/1b,,2b/6b,,
{16}3b-8b[8:1]/7b-4b[8:1],,,,,,,,1b,5b,1b,5b,Cf,,,,
{32}1/8,2/7,3/6,4h[32:4]/5h[32:12],,,,,3,2,1h[32:5],,,,,,
{32}2/6,3/7,4h[32:5]/8h[32:5],,,,,,3/7,2/6,1/5,,,,,,
{16}1x/5x,,1/5,,1/5,,1/5,2/6,3x/7x,,3/7,,4x/8x,,4/8,,
{16}4,8,3,7,2,6,1,5,
8,4,1,5,2,6,3,7,{1}Cf,,
(150)
{12}
3,4,3,6,5,6h[2:1],E1,E8,E7,E6,E5,E4,6,5,7,3,4,2h[2:1],E4,E3,E2,E1,E8,E7,
3,3,4,3,3,5,3,3,6,4,5,3,7,7,6,7,7,5,7,7,4,6,3,5,2,2,4,3h[4:1]/5,,,6,6,5,4/7h[4:1],,,3,5,2,6,4,7,3h[4:1],,,4,,,
{2}
5<8[2:1],8>4[2:1],4<1[2:1],1>7[2:1],7b<7[4:5]b,,,,
{24}3,4,2,6,5,7,3,5,1,6,4,8,3,4,2,6,5,7,{48}5bx,4x,3x,,8,,1,,7,,2,,
{48}1,,3,,5,,4,,6,,3,,4,,2bx,3x,4x,5x,6x,7x,8x,1x,2x,3x,
{4}4bx/Cf,,,,
