&title=快晴
&artist=Leo/need / Orangestar
&first=-2.04
&des=M1zukiri
&lv_5=13+
&inote_5=(172){1},
{4},,,{16},,3,3,
{8}4b-6[8:1],,2,2-6[8:1],,8,8h[4:1],,5,7,3,5,1-4[8:1]*-6[8:1],,1,,
{8}5-7[8:1],,3,3-7[8:1],,8,8h[4:1],,5,7,3,5,1-4[8:1]*-6[8:1],,1,,
{8}3,4,{16}2,1,2,,{8}7,8,{16}6,5,6,,
{8}4-2[8:1],4,6-4[8:1],6,1-4[8:1]*-6[8:1],,1,,
{8}6,5,{16}7,8,7,,{8}2,1,{16}3,4,3,,
{16}7/4,,6,5,6,,2,4,2,,8,1,7,2,6,3,
{8}5-7[8:1],5,4,,7-4[8:1],7,3,,2-4[8:1],2,5-2[8:1],5,,8,8,,
{8}7-4[8:1],7,3,,5-8[8:1],5,4,,
{8}1,{16}2,4,3,5,4,6,{8}5-1[8:1],7-4[8:1],5b,7b,
{8}2-4[8:1],2,5,,{8}7-5[8:1],7,4,,
{8}3-1[8:1],3,4,,{8}5-7[8:1],5,1,,
{8}2-4[8:1],2,7,,{8}6-8[8:1],6,3,,
{8}3V17[4:1],3,6V82[4:1],,{8},,,,
{8}5-7[8:1],5,2,,3-5[8:1],3,8,,
{8}7-4[8:1],7,3-8[8:1],,,,4V68[4:1],,
{4}8V24[4:1],4V68[4:1],8,{8}1,1h[8:2],
{8},4,3/5,6,5-1[8:1]/7-4[8:1],,5b/7b,,
{8}2-5[8:1],2,1,8,7-4[8:1],7,8,1,2-6[8:1],2,5-8[8:1],,5-2[8:1],,5,,
{8}7-4[8:1],7,1,2,3-8[8:1],3,4,5,6-1[8:1],,2-5[8:1],,8,,7,7,
{4}3V57[4:1],7V13[4:1],3V57[4:1],{8}8,8-4[8:1],,2,2-5[8:1],,2/6,,
{4}8w4[8:1],8b,1w5[8:1],1b,8b,
{16}3/7,,6,5,6,,2,4,2,,8,1,7,2,6,3,
{4}5b>6[8:13],,1,1h[4:2],,,2-4[8:1],,
{4}3<2[8:13],,7h[4:2],,,5,5-8[8:1],,
{4}4>6[8:13],,5h[4:1],,4h[4:1],,5h[4:1],,
{4}5>7[8:13],,1h[4:1],,{8}3,,4,4,,5,5,,
{8}6-8[8:1]/5,,4,,6-1[8:1],5,4,,3-1[8:1]/4,,5,,3-8[8:1],4,5,,
{8}6-4[8:1]/1,,2,,5-8[8:1],4,3,,2-4[8:1]/7,,6,,5-8[8:1],4,3,,
{8}3-5[8:1],,3/6,7-4[8:1],,4/7,3,2-5[8:1],,2/1,8,7<8[8:6],,,3,3h[4:2],,,,,,,2/7,2-4[8:1]/7-5[8:1],
{8},,,6,5-8[8:1],,7h[4:3]/5,,
{32}1b,2,3,4,5,6,,8,1,2,3,4,5,6,,8,
{8}1b-4[8:1],,1,5pp5[4:1],,,4qq5[8:3],,4b,,6,,7-4[8:1],,7/3-8[8:1],,5/3,6,7>2[8:1],,
{8}3h[8:3]/7,,,4,4/5-8[8:1],,6h[4:3]/5,,
{32}1b,2,3,4,5,,7,8,1,2,3,4,5,,7,8,
{8}1b-5[8:1],,7,7-4[8:1],,3,3-8[8:1],,5-1[8:1]/3,,2^7[8:1]/5,,
{8}2/6^3[8:1],,6/2,1-4[8:1],,1-6[8:1]/8,,1/2,
{8},,,6,5-1[8:1],,7h[4:3]/5,,
{32}2b,3,4,5,6,,8,1,2,3,4,5,6,,8,1,
{8}2b>5[8:1],,7,7>2[8:1],,4,4-1[8:1],,4/8,,2<7[4:1],,7>2[4:1],,6,,5-1[8:1],,5/3-8[8:1],,3/7,,6,6-4[8:1],,1/6,2,3-5[8:1],,,,7,7-4[4:1],,4-1[4:1],,2,,3-8[4:1],,8-5[4:1],,7h[4:2],,,,,5,5-3[8:1],,5/7-3[8:1],,7/2,,1,1-6[8:1],,1b/5h[4:1],,,
{8}4,4,5h[4:1],,4,4,3h[4:1],,
{12}7,5,6,2,4,3,7,6,5,4,3,2,
{4}1bs5[8:3],,,,
{8}6-4[8:1],3,3,,6-3[8:1],2,2,,6-2[8:1],3,3,,6-1[8:1],4,4,,
{8}3-5[8:1],7,7,,3-7[8:1],6,6,,3-8[8:1],5,5,,3-6[8:1]/6^3[8:1],,,,
{16}2-4[8:1],,,1,2,,8,,{16}7-5[8:1],,,8,7,,1,,2-6[8:1],,,8,2,,7,,7b-5[8:1]*-1[8:1],,,,,,,,
{16}2-5[8:1],,,1,2,,8,,{16}7-4[8:1],,,8,7,,1,,2-6[8:1],,,8,2,,5,,5b-2[8:1]*-8[8:1],,,,,,,,
{8}3-1[8:1],3,5,5,2-5[8:1],2,6,6,4-1[8:1],4,7,7,3-7[8:1],3,8,8,
{8}5-1[8:1],5,7-3[8:1],7,2-6[8:1],2,5-8[8:1],5,
{8}4b,,,3/6,4-1[8:1]/5-8[8:1],,4/5,,
{32}2b,3,4,5,6,7,8,1,2b,3,4,5,6,7,8,1,2b,3,4,5,6,7,8,1,2b,3,4,5,6,7,8,1,
{8}2b-6[8:1],,2/8w4[8:1],,8b,,2/6V82[4:1],,3V17[4:1],,3,,5,4,3-5[8:1]/6-4[8:1],,
{8},,,4/6,3-8[8:1]/7-4[8:1],,3/7,,
{32}1b,2,3,4,5,6,7,8,1b,2,3,4,5,6,7,8,1b,2,3,4,5,6,7,8,1b,2,3,4,5,6,7,8,
{8}1bV35[8:1],,1/7-3[8:1],,7/4-1[8:1],,5,,8V62[4:1],,2,3V15[4:1],,8,7,6-4[8:1]*-8[8:1],,6-2[8:1],,
{8}3,3,,4V28[4:1],,4/7,,5,5V71[4:1],,5/1,2,3,4-1[8:1],,4-7[8:1],,4-8[8:1],,4,,
{8}5V71[4:1],,1V35[4:1],,5V71[4:1],,1,,2,,3/5,4-1[8:1],,4/7,6,5-8[8:1],,1/5,,
{8}2,2-5[8:1],,2/8,,7-4[8:1],,7/3,,1-4[8:1],,8/1-6[8:1],,2/1-5[8:1],,1/8,,7,,6,5,
{8}6-4[8:1],,2,2-5[8:1],,8<2[8:14],,8b,
{1},,
{8}2h[4:1],,4,4h[4:1],,3,3h[4:1],,8,4,7,5,6,4,5-8[8:1],,
{16}5b/1b,,,,2,1,2,,3,,4,,6,5,6,,{8}7-5[8:1],7,4-8[8:1],4,,5,6,,
{16}8,,7,,6,5,6,,3,,4,,2,1,2,,{8}8-4[8:1],8,3-1[8:1],3,,5,6,,
{16}7/4,,6,5,6,,3,4,3,,7,5,7,,2,4,2,,8,5,8,,1,4,1,,8,1,7,2,6,3,5b>6[8:24],
