&title=Apocaliptix
&artist=Juggernaut
&first=0
&des=土特产
&lv_5=14
&des_5=土特产
&inote_5=
(210){4},,,,{1}5b/4h[1:1],
{2}6h[4:3],3h[2:3],
{1}5,
{2}4h[2:1],5,
{1}8/1h[1:1],
{2}2h[2:1],3h[2:1],
{4}5h[1:1],{8},,,,4,3h[2:1],
{24},,,,,,,,,,,,7,6,5,4,3,2,1,8,7,6,5,4,
{4}3bxz7[4:3],,,1,
2bz6[4:3],,,1,
8bz4[4:3],{8},,,,2,2,
{2}3bp6[2:1],8-5[4:1],
{4}4b,3,2,1,
7b/3-1-5[2:1],6,5,6,
4/7b-2-6[2:1],7,3-1[4:1],3,
{24}8,7,6,5,4,3,2,1,8,7,6,5,1/4,2,3,4,5,6,7,8,1,2,3,4,
{4}5b<4[8:13],3h[4:1],,5x-1b[4:1],
{1}5b,
B8/B1/B7/B2/B6/B3/B5/B4/Ch[4:5],
{16},,,,,,,,4x,6x,5x,6x,{4}4x-8b[8:1],
{2}4b-2-6-8[8:5],{4}6-8-4[4:1],4x-1[4:1],
{8},,6,{16}7,5,7,4,6,3,{4}5-1b[8:1],
{2}5b-7-3-1[8:5],{4}3-1-5[4:1],5x<8[4:1],
{2}8-2-4[4:1],{16}8,1,2,3,{4}4-8b[8:1],
4b,7-5-1[4:1],1-4-8[4:1],8x-6-3[4:1],
,8h[8:1],1h[8:1],2h[8:1]/4-7b[8:1],
{2}4b-1-5[2:1],{4}5-8-3[2:1],6xh[2:1],
{16},,,,,,,,8,7,6,5/1,2,3,{8}4,
{16}1b/5bx,,,4b/8b,,,{8}7b/3b>6[8:3],,,6-8-2[4:1],5,
,5,4,{16}B5,B6,B7,B8,B1,B2,{4}B3,
{16}3bx/5b,,,1b/7b,,,{8}4b/6b<3[8:3],,,3-1-7[4:1],4,
,4,5,{16}B4,B3,B2,B1,B8,B7,{4}B6,
{24}8b,E8,B7,B6,,,{4}3b,{16}5,3,{8}5,{4}3b/6,
{8}4/7,7/4,6b/5,5/4,{16}3,4,{8}3,{4}2b/5,
{16}3b/4b,,,7b/8b,,,{8}1b/2b,{16}8b/1b,,,6b/5b,,,{8}2b/3b,
{24},2x,3x,4x,{6}5xh[12:7],{24},,8x,7x,{2}6xh[4:1],
{16}5x,6x,5x,6x,{4}4b,{16}5,6,5,6,{4}4b,
{16}5,6,5,6,3b,6,5,6,5,6,5,6,{4}3b,
{16}5x,6x,5x,6x,{4}2b,{16}5,6,5,6,{4}2b,
{16}5,6,5,6,3b,6,5,6,5,6,5,6,{4}4b,
{16}5x,4x,4x,3x,{4}5b,{16}4,3,4,3,{4}5b,
{16}4,3,4,3,6b,3,4,3,4,3,4,3,{4}6b,
{16}4x,3x,4x,3x,{4}7b,{16}4,3,4,3,{4}7b,
{16}4x,3x,4x,3x,6b,3,4,3,4x,3x,4x,3x,{4}5b,
{8}7/4-2[8:1],{16}5,6,{4}4b/7,{8}6/3-1[8:1],{16}4,5,{4}3b/6,
{8}5/2-8[8:1],{16}3,4,{4}2b/5,{8}6/3-1-4[4:1],{16}4,5,{4}3b/6,
{8}6-8[8:1],{16}5,4,{4}6b/3,{8}2/5-7[8:1],{16}4,3,{4}5b/2,
{8}3/6-8[8:1],{16}5,4,{4}6b,{8}4/7-1-6[4:1],{16}6,5,{4}7b/4,
{16}1x-5[8:1],2,{8}3,{32}1b,C,,,,,,,{16}8-4[8:1],7,{8}6,{32}8b,C,,,,,,,{16}1-5[8:1],
2,{8}3,{32}1b,C,,,,,,,{16}8-4[8:1],7,{8}6,{32}8b,C,,,,,,,{16}5,
4,5,4,{8}6b,3b,{16}4,5,4,5,{8}3b,6b,
{16}3,4,3,4,{8}1b,8b,{16}6,5,6,5,{8}8b,1b,
{16}6x/B2/E3/B3,,,5x/B1/E2/B2,,,{8}4x/B8/E1/B1,{16},3x/B7/E7/B6,,,{8}4x/B6/E6/B5,{16}3x,4x,
3/5bxh[16:1],,,2bxh[16:1]/4h[16:1],,,{8}3bxh[16:1]/1h[16:1],{16},5bxh[16:1]/6h[16:1],,,{4}7bxh[8:1]/5x-2[8:1],
{8}5bx,6-1[8:1],,6b,{4}4-2[8:1],4b<3-5-7-1[48:25],
{48},D5,,D6,,D7,,D8,,D1,,D2,,D3,,D4,,A5,,A6,,A7,,A8,,A1f,,,,,,,,,,,,,,,,,,,,{16}6,
5,6,4,7,,7,,7/4,,4,,4,,4/5,,,6/4bxh[16:1],
,,7bxh[16:1]/5h[16:1],,,{8}6bxh[16:1]/8h[16:1],{16},4bxh[16:1]/3h[16:1],,,{4}2bxh[8:1]/4x-7[8:1],
{8}4bx,3-1[8:1],,3b,{4}5-7[8:1],5b,
{16}1,1,1,1,1,1,1,1,1,1,1,1,1-5b[16:1]*>8[4:31],1,1,1,
{64}1b,B1,Cf,B5,{1},{4},,,{16},,,{1}2>8[8:43]*>8[8:43],
,3<8[8:27]*<8[8:27],
,4<8[8:9]*<8[8:9],
{2},3h[2:1],
{8}5,,,7/3,,,{4}2/6-8-4<3[4:3],
{1}6b/3bh,
{8}1h[8:3],,,6,,,{4}7/2v4>6[8:5],
{1}2b/6bh,
{8}7,7,7,7,7/4,4,4,4,
4/2,2,2,2,2/8,8,8,8,
{16}7,1,6,2,5,3,4,3,{32}4x,5x,6x,7x,8x,1x,2x,3x,4x,5x,6x,7x,8x,1x,2x,3x,
4x,5x,6x,7x,8x,1x,2x,3x,4x,5x,{16}6xh[16:3],{32},,,,1,2,3,4,5,6,7,8,{4}1/5b,
{8}7/4,{16}6,5,{8}6,7/4,6/5,6,5/4,3,
2/5,{16}3,4,{8}3,2/5,2-5[8:1],8-4[8:1],2,8,
2,{16}3,4,{8}3,2/5,3/4,3,4/5,6,
7/4,{16}6,5,{8}6,7/4,7-4[8:1],1-5[8:1],7,1,
6,{16}7,8,{8}7,6/1,7/8,7,8/1,2,
3/8,{16}2,1,{8}2,1/8,1-5[8:1],7-4[8:1],1,7,
3,{16}2,8,{8}2,3/8,2/1,2,1/8,7,
6/1,{16}7,8,{8}7,1/8,8-4[8:1],2-5[8:1],8,2,
7-5[8:1],{16}1,8,{8}2/7bx,1,2-4[8:1],4,2bx,5,
7-5[8:1],5,7bx,4,2-5[8:1],5,2b,6,
7-4[8:1],4,7b,3,1-4[8:1],4,1b,5,
8-5[8:1],5,8b,4,1-5[8:1],5,1b,6,
7>1[8:1],6,5b,4,2>5[8:1],1,8b,7,
6<1[8:1],5,4b,3,2-4<5[8:1],1,8b,7,
6-8>1[8:1],5,4b,3h[16:1],,5h[16:1]/2h[16:1],,3h[16:1]/6h[16:1],
,6h[16:1]/5h[16:1],,8h[16:1]/7h[16:1],,2h[16:1]/1h[16:1],,5/4,
{4}5/3h[4:1],{8}4,5/3h[4:1],,5,{4}6/3h[4:1],
{8}6,7,,3/8,{16}2,1,2,1,2,8-4b[8:1],1,8,
{4}1,{8}2,1>4[8:1],,6,7<4[8:1],8,
{4}3-8[8:1],{8}3b,6<8[8:1],{16},,6/5,4,3,2,,,{4}4/6h[4:1],
{8}5,4/6h[4:1],,4,{4}3/6h[4:1],
{8}3,2,,6/1,{16}7,8,7,8,7,1-5b[8:1],8,1,
{4}8,{8}7,8<5[8:1],,3,2>5[8:1],1,
{4}6-1[8:1],{8}6b,3>1[8:1],{16},,3/4,5,6,7,,,{4}1/7h[4:1],
{8}8,7h[4:1]/B8,,1,{4}7h[4:1]/B1,
{8}2,B3,,7/4,{16}6,5,6,5,6,4-8b[8:1],5,4,
{4}5,{8}6,5<8[8:1],,2,3>8[8:1],4,
{4}7-4[8:1],{8}7b,2>4[8:1],{16},,2/1,8,7,6,,,{4}8/2h[4:1],
{8}1,2h[4:1]/B1,,8,{4}2h[4:1]/B8,
{8}7,B6,,2/5,{16}3,4,3,4,3,5-1b[8:1],4,5,
{4}4,{8}3,4>1[8:1],,7,{4}7-5[8:1],
2,{8}1b,1/5,{32}1/5,2/6,3/7,4/8,5,6,7,8,1,2,3,4,5,6,7,8,
{4}5/1,1x-4[0.3571##0.0714]/5x-8[0.3571##0.0714],{64},,,,1b-7-4[16:51]/5b-3-8[16:51],E2/E6,,E8f/E4f,
E
