&title=華嵐
&artist=オトメ世界の歩き方
&first=0
&des=Silent_Witch
&lv_5=13
&inote_5=(180)
{1},,
{4}5pp1[8:11]/3h[1:2],,,,,,,,8^5[2:1],,3q6[1:1],{8},,7h[4:3],,{4},,,4h[4:1]/8-5[8:1],,6h[4:1]/2-7[8:1],,8h[4:1]/4V61[4:1],,2h[4:1],{16},,,,7/3h[16:11],,,,,,6,,6pp1[1:1],,,,,,2,,2h[1:1],,,,,,,,,,,,,,,,
{8}7-3[8:1],,7/1>1[3:1],,{24}E2,E3,E4,E5,E6,E7,E8,E1,,,,,
{8}34,3/4h[4:1],,2,5,6,1,2h[8:3]/8,,,4^7[8:1],,4^1[8:1],,4,,7,7h[4:1]/5,,{16}4,6,4,,{8}3,2,8,1^4[8:1],,6-2[8:1],,5V38[4:1],,7,,6,6h[16:3],
{16}E1,B1,B2,E3,E5,B5,B6,E7,E2,B2,B3,E4,6<4[8:4],,,57,,,8xh[8:3],,
{16},,,,,,,,5h[4:1]/7,,,,3h[4:1],,,,1h[4:1],,,,7,,,,2b/C/B5/B4,,,7b/C/B5/B4,,,1bpp8[8:5]/C/B5/B4,,
{8},,,,6^3[8:5],,,,,,,,2q7[4:3],,,,,,,,8q1[4:3],,,,,,,,3h[2:1],,,,{16}B7/E7,,,B2/E2,,,B5/E6,,{8}2xq5[4:3],,,,,,,,6<3[4:3],,,,,,,,4h[8:4],,,,5-1[8:1],,7,,28,28,,34,,56,,7,
{8}7qq4[4:3],,2,,2,,2,,3^6[4:1],,5,,7p3[4:1],,1,,2h[8:3],,,5qq1[8:5],5h[8:4],,,,,,,2,2,6,4,7V53[4:1],,E1/B8,,2,2,4,3,6<2[8:3],,,2p5[16:5],,3,,4,,6h[8:3],,8,8,,3/1q5[16:3],,7,,E1/B8,B3/E4,E5/B5,B1/E2,B6/E7,B2/E3,B8/E8,
{16}4x/7x,,,26,,,3/4h[8:1],,
{24}E4,E3,E2,E1,E8,E7,E6,E5,E4,,,,
{16}2x/6x,,,78,,,4/6h[8:1],,
{16}3,5,3,5,2,4,2,4,
{16}1x/5x,,,37,,,5h[8:1]/6,,
{24}E6,E7,E8,E1,E2,E3,E4,E5,E6,,,,
{16}7x/3x,,,21,,,5/3h[4:1],,4^1[16:3],,4,,,,7,,
{16}7h[16:3],,,8h[16:3],,,6,,6h[16:3],,,2h[16:3],,,4pp8[16:7],,4,,,,,,3,,3,,2,,1,,7,,4h[8:3],,,,5,,5,,36,,36,,27,,27,,1b/8b,,,5b/7b,,,2b/4b,,
{24}24,1x,8x,7x,6x,5x,4x,3x,2x,1x,,,
{16}7^4[8:1],,,,17,,2,,3V52[4:1],,,,B6/B7/E7,,,,8h[4:1],,,,2>8[8:3],,1,,6h[4:1],,,,,,,,
1-4[8:1]/5,,,,1/5^8[8:1],,,,2q6[8:1]/5,,,,12,,,,4/8^5[8:1],,,,2,,1,,8x/4xw8[8:1],,,,,,,,
{16}2h[16:3]/6,,,4,,,34,,2/5h[16:3],,,8,,,78,,1/6h[16:3],,,3,,,5^8[8:1]/4^1[8:1],,54,,,,,,2,7,3^8[8:1],,3,,6^3[8:1],,6,,1^6[8:1],,1,,4-8[8:1],,4,,1x,,,3x,,,7x/5x,,
{24}7x/5x,8x,1x,2x,3x,4x,5x,6x,7x,8x,,,
{16}2^5[8:1],,,,82,,7,,6V47[4:1],,,,B3/B2/E3,,,,1h[4:1],,,,7<1[8:3],,8,,3h[4:1],,,,,,,,
8-5[8:1]/4,,,,8/4^1[8:1],,,,7p3[8:1]/4,,,,87,,1,,2h[4:1],,,,5<5[3:1],,,,{24}E6,E7,E8,E1,E2,E3,E4,E5,,
{16},,2h[4:1]/6h[4:1],,,,,,4h[8:2]/8h[8:2],,,,,,48,,7x,6x,5xh[4:1]/2h[4:1],,,,,,6h[8:2]/4h[8:2],,,,,,64,,5,4,36,,2,,18,,7,,56,,,24,,,18,,7,1,7,1,6,2,6,2,5,3,5,3,4,4,4,4,4bpp7[16:8]*qq1[16:8],,,,,,,,,,,,,,,,
{8}26,2/6h[4:1],,3,5,47,8,1/2V46[4:1],,,8-4[8:1],,8^3[8:1],,8^5[8:1],,2,2h[4:1],,{16}4,3,5,,{8}6,7,2,1^4[8:1]/8,,8^5[8:1]/1,,2q6[16:3]/8,,27,,5x,5xh[16:3],
{16}7x,8x,1x,2x,4x,5x,6x,7x,1x,2x,3x,4x,5<3[8:4]/7,,,42,,,8h[8:3],,
{16},,,,,,,,5h[4:1]/1,,,,3h[4:1],,,,1h[4:1],,,,7,,,,2b/C/B5/B4,,,7b/C/B5/B4,,,1bpp8<1[8:25]/Cf/B5/B4,,,,,,,,,,,,,,Ch[8:32],,,,,,,,,,,,,,,,,,,,,,,,,,,,,,,,,,,,,,,,,,,,,,,,,,,,,,,,,,,,,,,,{24}3,4,5,6,,,,,,,,,,,,,,,,,,,,,E
