&title=我是一颗跳跳糖
&artist=大张伟
&first=0.02
&des=Jason Wtah?
&lv_6=12+
&inote_6=(106){1},
{1},
{8},,,,,,,7h[8:1],
{16},1,2,8,7,1-5[12:1],2,8,7,,7,,6-3[12:1],,,,
{8}6/5h[4:1],,2<7[8:1]*v4[8:1],,,,6v3[12:1],,
{8}6/4h[4:1],,2<7[8:1]*v4[8:1],,,,6q3[8:1],,
{8}6/3,,2/5,,7/4,8/2,2/5,1/7,
{16}4,5,3,6,2,7,1,8,1,,,,5/4,,1/8,,
{8}2>4[12:1]/7,5,7/2,5,7<5[12:1]/2,4,2/7,4,
{8}2>4[12:1]/7,5,7/2,5,7/2,,4/5,1/8,
{8}7<5[12:1]/2,4,2/7,4,2>4[12:1]/7,5,7/2,5,
{8}7<5[12:1]/2,4,2/7,4,2>4[12:1]/7<5[12:1],,,,
{8}2-4[12:1]/7,5,7/2,5,7-5[12:1]/2,4,2/7,4,
{16}2-4[12:1]/7,,5,,7/2,,5,,2/8-5[12:1],8h[8:1],,,2,,4,,
{8}7-5[12:1]/2,4,2/7,4,2-4[12:1]/7,5,7/2,5,
{8}7-5[12:1]/2,4,2p8[4:1]/7,4,2/7<1[16:3],,7b,,
{16}3-6[12:1],,,8,8,,,,3-6[12:1],,,7,7,,,,
{16}3-6[12:1],,,6,6,,,,4-1[12:1],,,,5-8[12:1],,,,
{16}2-7[12:1],,,8,8,,,,2-7[12:1],,,7,7,,,,
{16}2-7[12:1],,,6,6,,,,5pp7[8:1]/4q1[8:1],,,,,,,,
{16}2>5[12:1],,,6,6,,,,7v6[12:1]/5-3[12:1],,,,,,,,
{4}5w1[8:1],5qq3[4:1]*pp7[4:1],,,
{16}2>5[12:1],,,6,6,,,,2-5[12:1],,,5,5,,,,
{4}2v3[12:1]/4-6[12:1],,7/4-8[16:3],,
{16}6<1[12:1],,,5,5,,,,6<3[8:1]*q3[8:1],,,,,,,,
{16}6-1[12:1],,,5,5,,,,6-1[12:1]/5-2[12:1],,,,,,,,
{16}6-2[12:1],,,5,5,,,,1p3[8:1]/5p7[8:1],,,,,,,,
{16}8-4[12:1],,,4,4,,,,7v6[12:1]/1v2[12:1],,,,,,,,
{16}3-5[12:1],,,6,6,,6,,6-4[12:1],,,3,3,,3h[8:1],,
{16}5,6,4,3,5,6,4,3s7[16:3],5z1[8:1],,,,,,,,
{16}2-5[12:1],,,6,6,,7,,7-4[12:1],,,3,3,,2h[8:1],,
{16}8,7,1,2,8-4[12:1],7,1,2,,,2,,3-5[12:1],,5-2[12:1],,
{8}2,6,6-4[12:1],4-7[12:1],7,3,3-5[12:1],5-1[12:1],
{8}2,6,6-4[12:1],4-8[12:1],7,3,3,5,
{16}4,4,6,6,3,3,5,5,2,2,6,6,1,1,7,7,
{32}1,8,1,8,1,8,1,8,1,8,1,8,1,8,1,8,1q7[16:3],,,,,,,,8bw4[8:1],,,,,,,,
{16},,,,2-4[12:1],1,1,,7-1[12:1],6,6,,5v6[12:1]*-3[12:1],,4,,
{16},,,,2-8[12:1],1,1,,5-7[12:1],6,6,,4-1[12:1],,1-4[12:1],,
{16}4/5,,,,7-5[12:1],8,8,,2-8[12:1],3,3,,4v3[12:1]*-6[12:1],,5,,
{16},,,,7-1[12:1],8,8,,4-2[12:1],3,3,,5-8[12:1],,8-5[12:1],,
{8}4/5,,2v4[8:1]*<7[8:1],,2,,5-8[12:1],8-5[12:1],
{8}3/5,,2v4[8:1]*<7[8:1],,2,,5-8[12:1],8-5[12:1],
{8}2/5,,4-1[12:1],1-4[12:1],7/4,,5w1[8:1],8/3,
{32}5,,,,,,,,3/7,4/8,,,,,,,2/6,5/1,,,,,,,
{8}5-8[32:3]*q2[8:1]/4,8/3,
{1}5b>6[4:3],
{1},
E
