&title=システムズコア
&artist=ヰ世界情緒
&first=-0.2
&des=micavro
&lv_5=14
&inote_5=(200)
{1},
{4}4-6-2-8-2-6-4[4:6]/6h[4:7],,,,,,,,8-2-6-4-2-6-8[4:6]/2h[4:7],,,,,,,,
{8}2-4[8:1],,2,7-5[8:1],,7,1,1-3[8:1],,1,8,8-6[8:1],,8,2,2,5-7[8:1],,5,3-1[8:1],,3,6,6,{16}1,1,4,,2,2,5,,3,3,6b,,{128}6b,E7f,E6f,B7,B5,B8,B4,E1,E4,A1,A3,,,,,,,,,,,,,,,,,,,,,,
{8}
8x-4[8:1],,8/3,3h[4:1],,5-1[8:1],2-6[8:1],5,2,8,8,3,3,6,6-8[8:1]b,1,
1-5[8:1]/A6f,,1/6,6h[4:1],,4-8[8:1],7-3[8:1],4,7,2,2,6,6,4,4-1[8:1]b,8,
8p4[8:1]/A4f,,2/8,2h[4:1],,5-8[8:1],2-5[8:1],5,2,7,7,7/4,4,4/6,6w2b[8:1],6,A6f,,
C/4,,E4,E3/6,,E8,E7/2,E6,E5/1,,E4,E3/7,E2,E1/6,Cf,,
2-4[8:1]/8,2/8,,7<5[8:1],7,8,,3>1[8:1],3,4,,6<8[8:1],5>3[8:1],6,5,,1/2,1/2,,3-1[8:1],4,3/5,,6-8[8:1],5,6/4,3-5[8:1]*-6[8:1],,3-1b[8:1]*-8b[8:1],,3,,
3x/4x,2V48[6:1]/5,,5,6,7V51[6:1],,1,2,3-8[8:1],,5,5,6,6/1,,3/5,3/5,,
6-1[8:1],5,4/6,,3-7[8:1],3,8-4[8:1],8,1,1-5[8:1]b,1/6,{16}A1f/6,,
{8},4-2[8:1]/7,4/7,,7>2[8:1],7,4,,3<6[8:1],3,8,,8-4[8:1],1-5[8:1],8,1,,2/7,2/7,,3-5[8:1],2,3/1,,7-1[8:1],6,7/5,4<7[8:1],,4>7b[8:1],,4,,
6x/5x,7qq4[4:1]/4,,4,3,2qq4[4:1],,8,7,6v1[8:1],,4,4,3,3/8,,7/4,7/4,5/6,6/5,{16}4,5,4,5,{16}3,6,3,6,3-1[8:1],6-4[8:1],3,6,,,,,,,,,,,
{8}1>8[1:1]/Cf,,,,,,,,,,,,8-5[8:3]*<8[8:8],,,,,,,,,,,,1s5[8:1],,,,
7/4,7,3/6,3,5<8[8:1]/4,,5/2,1>4[8:1],,1-7[8:1]/7-4[8:1],,1/7V13[6:1],,5-1[8:1]/7x,,5<1[8:1]*>1[8:1],,5,,,2h[8:7],1,1,1,3,4,5,6,7b>2[8:1]*>2[8:1]/3b,7b/3b,7b/3b<6[8:1]b,,,,,
,4>1[8:1],,4/6,8<5[8:1],,8/1,2-6[8:1],2,7,7p3[8:1],,2b/A7f,,1-5[8:1],2/8,1,6-3[8:1],6,2-7[8:1],2,,5-1[8:1],6/4,5w1[8:1],,,,
7,6/4,4/6,3/5,3/5,2<7[8:1],,2/5,4<7[8:1],,3/4,3-8[8:1],3,7,7v2[8:1]*v4[8:1],,7b,,
5pp5[4:1],5,5qq5[4:1],,,1,1,6x,6x,2v5[8:1],1b/3b,,7v4[8:1],8b/6b,Cf,,
{16}2,6,3,7,4,8,5>2[8:1],,{8},5/8,1v6[8:1],,1/2,3<6[8:1],3,7,7v2[8:1],,1b/A7f,,3-1[8:1],4/2,3,8<5[8:1],8,2,2-5[8:1],,2-7[8:1]/6-3[8:1],,2v8[6:1]/6v4[6:1],,2/6,,,{16}1x,5,8,4,7,3,6,2,{8}5x<8[8:1]/1x>4[8:1],,5p1[8:1]/1p5[8:1],,5-7>8[8:1]/1-3<4[8:1],,5/1,,5>1[8:1],,6/5,7-3[8:1],,7-2[8:1]/8-5[8:1],,7b/8b,,
3-1[8:1],3,,7-5[8:1],8,7,,2-4[8:1],1,2,,6-8[8:1],5-1[8:1]b,6,5b,,
7-5[8:1],7,,2-4[8:1],1,2,,7-5[8:1],8,7,,3-1[8:1],4-8[8:1]b,3,4b,,
2,1/3,,7,7,6/8,,4,4,5/3,,6,6,6,5/7b,,
3,4/2,,6,6,7/5,,1,1,2,2,1/3,1/3,7/5,7b/5b
,Cf,,3>8[8:1],,4-8[8:1],,3-8[8:1],,4-7[8:1],,3p7[8:1],,4v7[8:1],,3,3,
4>1[8:1],,6v1[8:1],,5-2[8:1],,6<1[8:1],,5v2[8:1],,6v1[8:1],,5p1[8:1],,7,7,
8<5[8:1],,1>4[8:1],,8v5[8:1],,1v4[8:1],,8-3[8:1],,1-6[8:1],,8v3[8:1],,4,4,
4-8[8:1],,5-1[8:1],,3v8[8:1],,7,7,2/6,2/6,3/7,3/7,4/8,{16}4/8,3/7,
{8}6/2,5>5[4:2]/Cf,,1x,2x,3x,4x,4x>1[8:1],,4/5-7-3-8[4:2],,2,3,4,5,5-8[8:1],,
3V17>3[4:2]/5,,7,6,5,4,4-8[8:1],,4/6v1<6[8:3],,3,4,5w1[8:1],,5,,
3-7-1>4[4:2],,7,6,6,5,5V31[8:1],,5/6v1<4[4:2],,1x,2,2,3-1v8-6[4:1],3,,5b,5,
5,7/4,7/4,6/2,6/2,3/7,5b/1b,{16},,2,1,3,8,4,7,1,8,2,7,3,6,4,5,
{1}Cf,,,,1<7[2:1]/7<4[2:1],1>4[2:1]*<4[2:1],8-5[2:1]*>2v4[2:1],7-3[2:1]/3>4[2:1],
{8}3,3-5[4:1],,,1h[4:1],,,,6-4[4:1],,8,8h[4:1],,2,2-8[4:1],,4h[4:1],,,7,,7-1[4:1],,5,5h[4:1],,,,1-3[4:1]*-7[4:1],,,,,
4,4>2[4:1],,1h[4:1],,,,8<6[4:1],8,,5h[4:1],,2,2<8[4:1],,4h[4:1],,,7>1[4:1],,7,,5h[4:1],,1,1,,2>4[4:1]*<8[4:1],2,,,,
6/5,6-8[4:1]/5,,1h[4:1],,,,2-8[4:1]/3,,7,7h[4:1],,5,6/5,6/5-3[4:1],1h[4:1],,,1-5b[8:1],,1/7-3[8:1]b,,7/1,,1/4,2/5,3/6,4>1[8:1]b/7,,4b/7-3[8:1]b,,7b/Cf,,
2-8[8:1],2,7-3[8:1],7,4-6[8:1],4,8-2[8:1],8,7-3[8:1],7,6-4[8:1],6,8z4>8[8:3],,8b,,
,,6,6,5/7,5/7,2/4,2/4,1/3,{16}1/3,,6/8,,6/8,,3b,2,4,,8b,,8,6,7,,2b,,2,1,3,,6b,,6,5,7b,,2,6,3,7,4,8,5,1,6xh[8:3],A2f,,,,,Ch[4:4],,,,,,,,,,,,,,,,A7/E8/B8/B1/E2/A2/A1/B2/B3/E4/A4/B7/B6/A6/E6/B5/B4/A3,,,,,,,,,,,,,,
{8},1q5[8:1],,1/8,6q2[8:1],,6/3q7[8:1],3,3/8,8,8p4[8:1]*q4[8:1],,A8f,,1-5[8:1],2/8,1,7-4[8:1],7,7/2-5[8:1],2,2,6-2[8:1],5x/7,6w2b[8:1],,,,
7,{16}4,6,4,6,3,5,3,5,{8}2v7[8:1],,2/5,4q8[8:1],,3/4,3v8[8:1],3,7,7p3[8:1]*>3[8:1],,7b,,
5qq5[4:1]b,5,5pp5[4:1]b,,,1,1,2,2,3v8[8:1]b,2b/4b,,6v1[8:1]b,5b/7b,Cf,,
{16}5,1,4,8,3,7,2v5[8:1],,{8},2/7,6<1[8:1],,6/5,4v1[8:1],4,8,8<5[8:1]*q4[8:1],,A8f,,3-8[8:1],4/2,3,5v2[8:1],5,8,8-4[8:1],,8<5[8:1]*>3[8:1],,8v5[8:1]*v3[8:1],,8b,,,{16}4/8,5,6,7,8/4,1,2,3,{8}4>3>2<1[8:1]/8<7<6>5[8:1],,4/8-4[8:1],,4>1[8:1]/8,5,6,7,8/3,8/3,6-8[8:1]/1,6/1,,2,2,4qq5b[8:2]/5pp4[8:2],4/5,4/5,,A4/D5f/A5,,1b/8b,,7/8,,5/6,5/6,4/5,4/5,3/4,2/3,1h[4:6]/2,Cf,,,,,,,,,,,,4h[4:1]/6h[4:1],,,1h[1:2]b/Cf/B4/B5,,,,,,,,,,,,,,,,
,6/4,6,6,6,5/3,3,3,3,6/3,6,6,6,4/7,4,4,4,2/5,2/5,5,5,6/3,6/3,3,3,6/4,6/4,6,6,2/7,2/7,2,2,
{16}7,8,7,,2,1,2,,6,5,6,,3,4,3,,6,5,7,,3,4,2,,7,6,8,,2,3,1,,6,5,8,,3,4,1,,7,8,5,,2,1,4,,6,4,8,,3,5,1,,7,1,5,,2,8,4>8>4[2:1]b,,,,
{8}8,7,6,5,5-2[8:1],,5V71V75[2:1]b,,2x,3,4-1[8:1],4,4,,
3/7,3/7,2/6,2/6,1/5,1/5,8/4,8/4,{16}7/3,,7/3,,7,3,7,3,7,3,
{24}7b,8,1,3b,4,5,8b,1,2,4b,5,6,1bs5[8:1]*v4[8:1],
