&title=あああああああああああああああああああああああああああああああああああああああああ &artist=土拨鼠 &first=0 &des=Glowああああああ &clock_count=2 &lv_5=あ &inote_1= &inote_5=(104.17) {1}, {4}, {80}2b,3b,4b,5b,6b,7b,8b,1b,2b,3b,4b,5b,6b,7b,8b,1b,2b,3b,4b,5b,6b,7b,8b,1b,2b,3b,4b,5b,6b,7b,8b,1b,2b,3b,4bs8[8:13]*s8[8:13],,,,,, {4},,,,,,,,, {80}8b,7b,6b,5b,4b,3b,2b,1b,8b,7b,6b,5b,4b,3b,2b,1b,8b,7b,6b,5b,4b,3b,2b,1b,8b,7b,6b,5b,4b,3b,2b,1b,8b,7b,6bs2[8:4],,,,,, {4},,, E