&title=Strange Love
&artist=削除
&first=0
&des=Kanata
&lv_5=14
&inote_5=(190)
{4},,,
,,,
,,,
,,,
(150){4}A7/E7/B7/Cf/B3/E3/A3/A1/E1/B1/A5/E5/B5,,,,
(160){6}A1,A5,E2,
(170){6}E6,E3,E7,
{180}{6}E4,E8,A3,
(190){6}A8,A2,A7,
{16}3h[16:3],,,4,3,,2/5,,1,,2/8,,
{8}7-3[8:1],3-5[8:1],7,2,1h[4:1],,
{4}4-8-6[4:1],{8}2,3,4h[4:1],,
{4}8-4-6[4:1],{8}4,3,2,,
{16}6hx[16:3],,,5,6,,7/4,,8,,2/1,,
{8}3-8-2[16:4]/8h[4:1],,,6,5,4,
{8}3/4<5-7[8:1],,2/4,
2,1-6[8:1],2,
{8}1/3h[4:1],,5x-7>8[8:1],4,3/5,2,
{8}1h[4:1],,3,2/4-6[8:1],,1,
{8}2,3,4/7,8h[4:1],,1,
{16}2h[8:1],,,3h[8:1]/4h[8:1],,,5/7,,4/8-6>5[8:1],,,,
{8}3,2,1,8,7,6,
{4}1b-6-4-2-7-5-3-8-6-3-1-5[4:9]/5b,,,
,,,
,,,
,,,
{16}4/7h[16:3],,,5,6,,{8}3/7,{16}2,4,3,,
{8}5,4/6,{16}7,8,{8}7-3[8:1],1,3/7,
{8}2-4<5-3>1[16:6],,6,,7,,
{8}7-5>4[16:3],,4-6<8[16:3],,3,,
{16}2h[16:3],,,4,3,,{8}4/5,{16}6,5,7,,
{8}4,5/3,{16}2,1,{8}2-6[8:1],8,6/2,
{8}7-1[8:1],,4/7,5V71[4:1]*V31[4:1],,,
{4},2x/8x,3/7,
{4}6V82[4:1],5,4,
3V17[4:1],4,5,
{16}7x,,,8/6,,,1h[8:2]/5h[4:1],,{4},
{4}1-3<4[8:1]/5v8[8:1],1/5,6x/2x,
{8}3/4,3/4,4/5,4/5,6/5,6/5,
{8}5/4,4/3,5/2,6/3,4/7,8/3,
{4}Ch[4:3],,,
2-4-7V15[4:2],,,
{4}Cf,,,
,,,
D7/E7,D6/E6,E5/D5,
D4/E4,D3/E3,B4/B5,
{8}3xh[4:1]/5x,,4h[8:1],2h[4:1],,4h[8:1],
{8}3h[8:1],5h[8:1],4h[8:1],6h[8:1],5h[8:1],7h[8:1],
{8}5h[8:1],6v3<4-7>8[4:3],4h[4:4],,,,,,,,,,
{8}7h[4:1]/1,,5h[8:1],6h[4:1],,5h[8:1],
{8}6h[8:1],4h[8:1],5h[8:1],3h[8:1],4h[8:1],2h[8:1],
{8}4h[8:1],3<5v8>1-6[4:3],5h[4:4],,,,,,,,,,
{8}5/7h[4:1],,5,4,3/5,6,
{8}5/7h[4:1],,4,3,2/4,5,
{8}6V84[4:1]/4,,4-6[8:1],3,2,,
{16}1,,2/6,,{8}3h[16:1]/4h[16:1],4h[16:1]/5h[16:1],5h[16:1]/6h[16:1],4h[16:1]/7h[16:1],
{8}3/8,4/7,3/6,2/5,2/5-7[8:1],,
{8}2-6[8:1]/5,2,2/8-4[8:1],8,3-6[8:1]/8,3,
{8}3/7-3[8:1],7,7/1-5[8:1],1,1/8-6[8:1],8,
{8}3-8[8:1]/8,3,5-1[8:1]/3x,5,5/1,,
{8}2/8,3/7,6/4,3/5,2-8[8:1]/6,,
{8}2/6-4[8:1],6,1-5[8:1]/6,1,7>5[4:4]/1,7,
{4}3h[4:3],,,,,,
{16}3/7h[16:3],,,4,6,,3/7,,3,8,2,7,
{8}1-6[8:1],6<8-2[16:4],1,,5,,
{8}5-2[8:1],2>4-6[16:4],5,,1h[4:1],,
{16}7x>1v3[4:1],,2/6,,3,,,,2,,,,
{16}4/2h[16:3],,,1,2,,3/8,,7,4,6,5,
{8}6v1[8:1],1<7-5[16:4],6,,3,,
{8}2v5[8:1],5>4-1[16:4],2,,7h[4:1],,
{16}8<7v2>3[4:1],,,,6,,,,5,,,,
{16}5/2h[16:3],,,4,3,,5/2,,6,1,7,2,
{8}8-2>3[8:1],3-8<7[16:4],8,,4,,
{8}4-7[8:1],7V53[16:4],4,,8h[4:1],,
{16}2-5[8:1],,1,,28,,,,4x/6x-3[8:1],,,,
{8}6/2-7[8:1],2,2/5-1[8:1],5,5/3-8[8:1],3,
{8}3/6-1[8:1],6,6/2-5[8:1],2,2/7-3[8:1],7,
{8}7/4-1[8:1],4,6-1[8:1]/4,6,2-5[8:1]/6,2,
{8}7-3[8:1]/2,7,7/4-2[8:1],4,8-3[8:1]/4,8,
{4}1<8-6>5-3>1[4:8]/8z4[4:3],,,,,,
8<7-5[4:2],,,,B5,B2,
{24}3b/7b,4,5,6,7,8,1,2,3,4,5,6,7p4b[16:5],8,1,2,3,4,
{4}5,,{8}3/5,2,
{16}8,1,7,,26,,3,5,4,,5/6,,
{16}7,5,6,4,5,4,6,5,7,4,8,3,
{8}7,3/6,2,5/1-3[8:1],6,7/1,
{4}6b>5-3[8:1],2v5[8:1]/6b,1/2b,
{8}8b-4[8:1],4<5-7[8:1],8b,2h[4:1],,8,
{24}2bx,3,4,1x,8,7,3x,4,5,7bx,6,5,1x,2,3,6x,5,4,
{16}2-5[8:1],,1,7,2,,6,,7,4,7,4,
{16}6,5,6,5,8,2,7,3,6,4,7,3,
{16}8,4,7,5,6,4,5,3,6,2,7,1,
{24}7b,6,5,3,2,1,7b,6,5,3,2,1,6b,5,4,3,2,1,
{16}8/Cf,,,,6,5,6,5,7,3,8,1,
{16}7,5,6,4,5,3,6,2,7,1,6,3,
{8}5b-1[16:19],,E6,E5,E4,,
{8}7,3,5-1b[8:1],4,{128}5,Cf,,,,,,,,,,,,,,,{8},
{16}8bx/2bxh[16:3],,,4,3,,{8}2/5,{16}6,5,7,,
{8}4,8/3,{16}2,1,{8}2-6[8:1],8,6/2,
{8}7-4>3[16:4],,3-5<7[4:1],,2,,
{8}2>3-5[16:3],,5>4-2<1[16:3],,6,,
{16}7h[16:3],,,8,6,,{8}5/1,{16}2,4,3,,
{8}5,4/6,{16}7,8,{8}7-3[8:1],1,3/7,
{8}2<8[8:1],,5/2,4-2<8[4:1]*<6-8[4:1],,,
{4},7x/1x,6/2,
{4}3V17[4:1],4,5,
6-1[8:1],5h[4:1],,
{16}2h[8:1]/1h[8:1],,,8h[8:1]/6h[8:1],,,3h[8:2]/5h[4:1],,{4},
{4}3b<4-6[8:1]*v8[8:1]/E7f/B6/B7,3,7x/1x,
{8}6/5,6/5,5/4,5/4,3/4,3/4,
{8}2/5,1/6,8/7,5/6,4/7,3/8,
{4}Ch[4:3],,,
2<8-5>3-7[4:2],,,
{4}Cf,,,
,,,
D7/E7,D6/E6,E5/D5,
D4/E4,D3/E3,B4/B5,
{8}3x/6x,2,1,8,7,5,
{8}4x/6x,3,{16}2,8,{8}1,7,6,
{8}3x/5x,2,1,8,7,6,
{8}5-1[8:1],,1<8-6[8:1]*v3[8:1],,,,
{8}2x/5x,3,5,6,7,8,
{8}1x/3x,4,{16}6,5,{8}7,1,2,
{8}3x/5x,6,7,8,2,3,
{8}4-8[8:1],,8-6>5[8:1]*pp2[8:1],,,,
{8}1x/4x,5,6,7,8,1,
{8}2x/4x,5,{16}6,8,{8}7,1,2,
{8}3x/5x,6,7,8,1,2,
{8}3-7[8:1],,7<6-4[8:1]*pp1[8:1],,,,
{8}2x/8x,7,6,5,4,2,
{8}1x/7x,6,{16}4,5,{8}3,2,1,
{8}8x/6x,5,4,3,2,8,
{4}1>2-5[4:1]/7<6v5[4:1],,,
{16}4h[8:1],,6h[8:1],7,8h[8:1],,2h[8:1],,4h[8:1],5,6h[8:1],,
{16}8h[8:1],,5h[8:1],6,7h[8:1],,1h[8:1],,6h[8:1],7,8h[8:1],,
{24}2x,3x,4x,{16}5x/6h[8:1],7,8h[8:1],,3h[8:1],,7h[8:1],8,1h[8:1],,
{8}5s1[4:1],,7<4[8:1],,,,
{16}5h[8:1],,3h[8:1],2,1h[8:1],,7h[8:1],,5h[8:1],4,3h[8:1],,
{16}8h[8:1],,4h[8:1],3,2h[8:1],,7h[8:1],,3h[8:1],2,1h[8:1],,
{16}7h[16:1],6h[16:1],5h[16:1],3h[16:1],2h[16:1],1h[16:1],7h[16:1],6h[16:1],5h[16:1],3h[16:1],2h[16:1],1h[16:1],
{16}8h[16:1],7h[16:1],6h[16:1],4h[16:1],3h[16:1],2h[16:1],8h[16:1],7h[16:1],6h[16:1],4h[16:1],3h[16:1],2h[16:1],
{16}1h[8:1],,7,8,6,1,5,2,4,3,5,4,
{16}6,5,7,4,8,3,7,2,6,4,5,3,
{16}6,2,6,2,7,1,7,2,
{384}8x,,,,,,,,,,,,,,,,,,,1x,,,,,,,,,,,,,,,,,,,8x,,,,,,,,,,,,,,,,,,,1x,,,,,,,,,,,,,,,,,,,{95}8x,,,,,
{384}1x,,,,,,,,,,,,,,,,,,,8x,,,,,,,,,,,,,,,,,,,1x,,,,,,,,,,,,,,,,,,,8x,,,,,,,,,,,,,,,,,,,{95}1x,,,,,
{384}8x,,,,,,,,,,,,,,,,,,,1x,,,,,,,,,,,,,,,,,,,8x,,,,,,,,,,,,,,,,,,,1x,,,,,,,,,,,,,,,,,,,{95}8x,,,,,
{384}1x,,,,,,,,,,,,,,,,,,,8x,,,,,,,,,,,,,,,,,,,1x,,,,,,,,,,,,,,,,,,,8x,,,,,,,,,,,,,,,,,,,{95}1x,,,,,
{24}8bx,7x,6bx,2bx,3x,4bx,8bx,7x,6bx,2bx,3x,4bx,1bx,8x,7bx,3bx,4x,5bx,
{24}1bx,8x,7bx,3bx,4x,5bx,1bxh[24:1],8xh[24:1],7bxh[24:1],3bxh[24:1],4xh[24:1],5bxh[24:1],1bxh[24:1],8xh[24:1],7bxh[24:1],3bxh[24:1],4xh[24:1],5bxh[24:1],
{24}1bxh[24:1],8xh[24:1],7bxh[24:16],{8},,,,,
{4}5v8<7-5b[4:1]*-2>3-5[4:1],,,
{384}3b,,,,,,,,,,,,,,,,,,,2,,,,,,,,,,,,,,,,,,,1,,,,,,,,,,,,,,,,,,,8,,,,,,,,,,,,,,,,,,,{96}7,,,,,
{384}3b,,,,,,,,,,,,,,,,,,,2,,,,,,,,,,,,,,,,,,,1,,,,,,,,,,,,,,,,,,,8,,,,,,,,,,,,,,,,,,,{96}7,,,,,
{24}3b,2,1,8,7,6,3b,2,1,8,7,6,
{192}3b,,,,,,,2,,,,,,,1,,,,,,,8,,,,,,,{384}7,,,,,,,,,,,,,{128}6,,,,,{32}5,
{192}3b,,,,,,,2,,,,,,,1,,,,,,,8,,,,,,,{384}7,,,,,,,,,,,,,{128}6,,,,,{32}5,
{8}3b/4bx,{16}3,4,2,5,2,6,{24}3b,4,5,{16},7,8,{24}7b,6,5,{16}1,8,1,8,1,
{24}2bx,3,4,{16}5,7x,{24}1b,2,3,{16}4,6x,{24}2b,3,4,{16}5,7x,{24}3b,4,5,{16}6,8xh[16:1],
{16}1bxh[16:1],5h[16:1],2h[16:1],6h[16:1],{12}1h[12:1],7h[12:1],8h[12:1],
{192}6h[192:19],,,,,,,,,,,,,,,,,,,5h[192:19],,,,,,,,,,,,,,,,,,,{128}7h[128:13],,,,,,,,,,,,,{192}4h[192:19],,,,,,,,,,,,,,,,,,,{128}8h[128:13],,,,,,,,,,,,,
{8}3h[8:1],2h[8:1],1h[8:1],8h[8:1],{12}7-3[8:1],,3,
{8}7,,5/1,,
{4}3b/7bh[4:1],1h[4:1],5h[4:1],
{4}7h[4:1],3h[4:1],1h[4:1],
{4}5bh[4:1],7h[4:1],3h[4:1],
{4}1bh[4:1],7h[4:1],{16}6-8[8:1],5,4,3,
{4}A6f/2h[4:1],8xh[4:1],6h[4:1],
{4}8h[4:1],4h[4:1],2h[4:1],
{4}6h[4:1],8h[4:1],4h[4:1],
{16}8,7,6,5,4/8>6[8:3],1>6b[16:5],2>6[8:2],3<6b[16:3],4<6[8:1]/8b,,,,
{4},,,
{24}1b/4qq8b[4:4],2/E5f,3/B6,4/A7,,,{4},,
{4},,,
{24}7b/4pp6>5v8b[4:13],6/E4f,5/B2,4/A1,,,{4},,
{32}1bv3>2p4[4:10],B1,Cf,B5,A5,,,,{4},,
{4},,,,,,,,,E7/A7/B7/D6/B6/E6/B4/B3/E3/A3/D4/A2/Ch[384:1],,,,,,,,E
