&title=Straight into the lights
&artist=Cosmograph
&first=0.109
&des=Jackの老冯
&lv_5=14+
&des_5=Jackの老冯
&inote_5=
(180){4},{8},,,,,,5h[8:1]/3h[4:1],
,,6h[4:1]/4h[8:1],,,7/3,3h[8:1]/7p4[2:1],
,,3,2,1,2,{4}3h[4:1],
{8}4,5<3[4:3],6,7h[4:1],,,6,7,
{4}8h[4:1],{8}5,4,3,2,1,8,
7,6h[8:1]/4h[4:1],,,{4}3h[8:1]/5h[8:1],{8}2/6,6h[8:1]/2q5[2:1],
,,6,7,8,7h[4:1],,1,
4/2,5,6,7h[4:1],,6,5-1[8:1],4,
{4}5b/3b,{8}2z6[8:1],8,{2}6b/2b,
{4}6V48[2:1],2,8V64[2:1],2,
4V28[2:1],1,8V63[2:1],4,
3V58[2:1],1,8V64[2:1],1,
4v7[4:1],2,1,4/5,
{8}8/1,2,1/8,7,8/1,2,1/8,7,
8/2,3,7/1,6,3/8,4,1/6,5,
{16}2,1,3,8,4,7,5,6,8,7,1,6,2,5,3,4,
{24}2,1,8,7,6,5,7/4,8,1,2,3,4,1/5,8,7,6,5,4,3/7,6,5,4,3,2,
{1}5b/1-5[8:13]*-5[8:13],
{4},,1-5[8:1],1b,
{8}4/7pp4[8:3],3,7,2h[4:1],,,1-6[8:1],6V83[4:1],
{2}1/5h[4:1],{8}5-3[8:1],5-7[8:1],,,{4}2-5[8:1],
2/4V61[4:1],{8}4/6,7,{4}8v5[8:1],
8/5<2[8:3],{8}2,3,4,5v2[8:1],{4}5,
{2}4-8[8:1],{8}5/6,4/2,{4}8/1-6[8:1]*-4[8:1],
1w5[8:1],1,{8}1h[16:1]/8h[16:1],8h[16:1]/1h[16:1],7h[16:1]/2h[16:1],2h[16:1]/7h[16:1],
{4}3/6-1[8:1],4,{8}3-8[8:1],5,{4}5,
7h[8:1]/4h[8:1],2h[8:1]/5h[8:1],{2}3w7[8:1],
5bV37[8:1]/1bV73[8:1],{8}6/2,3,4/7,8,
{4}5h[8:1]/1-6[8:1],{8}1/4<3[4:1],3,{2}4/7h[4:1],
{4}5-1[8:1]/6-1[8:1],6/5V38[4:1],{8}5/3,2,{4}1v4[8:1],
1/4>7[8:3],{8}7,6,5,4v7[8:1],{4}4,
{2}5w1[8:1],{8}3/4,5/7,{4}1/8-3[8:1]*-5[8:1],
8w4[8:1],8,{8}1h[16:1]/8h[16:1],1h[16:1]/8h[16:1],2h[16:1]/7h[16:1],2h[16:1]/7h[16:1],
{4}6/3-8[8:1],5,{8}6-1[8:1],4,{4}4,
{2}3h[4:1]/6h[8:3],{8}1/8,2/7,{4}3h[8:1]/6h[8:1],
{16}4,5,4,5,3,4,2,5,1,8,2,7,5,6,4,7,
{24}3,4,5,6,7,8,1/4,3,2,1,8,7,{32}6/1s5[8:1],2,3,4,5,6,7,8,{4}1b,
{8}7/4,{16}6,5,{8}6,4/7,5/2,{16}3,4,{8}3,2/5,
8/1,{16}6,5,{8}6,7/8,{16}1>6[16:3],5,3,7,{4}1b,
{8}8,7-3[8:1],,1,{4}2qq5[8:3],{8}8b,7h[4:1],
,,4V28[16:3],7V51[16:3],4b,7b,,,2/6,
{16}4,5,{8}4-8[8:1],3,4/2-5[8:1],1,2/6-1[8:1],7,
6/2,{24}2,3,4,{8}5>2[8:1],3/6,5/7-3[8:1],8-4[8:1],7,8,
{4}6bV84[4:1],{8}1,2,{4}3h[4:1],{8}5-2[8:1],6,
{4}5/7b-4[8:1],{8}1,2bV48[16:3],,7,{4}5h[4:1],
1,3/7,8/1-5[8:7],{16}8,7,{8}6,
{16}2,3,{8}4,{16}8,7,{8}6,{2}1b,
{8}7/5,{16}3,4,{8}2-5[16:1],1,6/2,{16}8,1,{8}7h[8:1],3,
{24}1,2,3,4,5,6,8,7,6,5,4,3,1,2,3,4,5,6,{4}1bw5[8:1],
{1}1<2[4:7],
,1>8[1:1],
{2},1h[8:3]/8h[8:3],
{8}6h[4:1],4h[4:1],,5h[8:3],{2}3h[4:1],
{8}4,5h[8:5]/3h[4:1],,,6,6,{4}6,
{8}3h[4:1],5h[4:1],,4h[8:3],{2}6h[4:1],
{8}5,4h[8:5]/6h[4:1],,,3,3,{4}3,
8/2,6/4,1/7,3/5,
{8}6/4,7,1/8,2,3/5,6,7/1,3/5,
{16}2,4,3,5,4,6,5,7,{24}4,8,4,8,4,8,{32}5,6,7,8,1,2/8,3/7,4/6,
{1}5bw1[8:3],
{8}2b/8bV64[8:1],4v7[8:1],8,2b,1-5[8:1],5-1[8:1],1b,7b<2[2:1],
,,1,8,7,8,1,2,
1bV35[8:1],5v2[8:1],1,7b,8-4[8:1],4-8[8:1],{4}8,
{8}2b,7b/5b-2[8:1]*-8[8:1],,5b,,1b/5b,{4}3b/7b,
{8}7b/1bV35[8:1],5v2[8:1],1,7b,8-4[8:1],4-8[8:1],8b,2b>7[2:1],
,,8,1,2,1,8,7,
8bV64[8:1],4v7[8:1],8,2b,1-5[8:1],5-1[8:1],{4}1,
{8}7b,2b/4b-7[8:1]*-1[8:1],,4b,,4b/8b,{4}6b/2b,
3/5pp1[2:1],3,3,3,
6/4qq8[2:1],6,6,6,
2/6qq1[2:1],2,2,2,
7/3pp8[2:1],7,7,6b,
{8}4/5,6,5/4,3,5/4,6,5/3,2,
4/6,7,5/2,1,4/7,8,1/5,3/7,
{16}1,5,3,6,4,8,2,7,1,6,3,8,2,7,4,5,
{32}2,3,4,5,6,7,8,1,{8}5b/2,5w1[8:1],7/3,5b,,,3b/7b<4[8:1],
{16}8,1,{8}7,3-8[8:1],2/1,{24}3/8-4[8:1],7,6,{8}5,5,
6-1[8:1],{16}7,5,{8}6,4,3,{24}2/5,3/6,4/7,{8}5/8,5h[8:3],
{16}4,3,2,1,8z4[4:1],7,6,5,{2}8/4,
{16}3,5,4,6,2,8,1,7,{24}2,3,4,8,7,6,{32}5/1w5[8:1],2,3,4,5,6,7,8,
{4}1b,{16}2,4,3,5,{8}4,2/6,{16}1,8,7,6,
8/5,7,6,5,7/4,6,5,4,{2}3h[4:1]/7h[4:1],
{4}6-1[8:1]/2-5[8:1],6b/2b,{8},3/7,8,1,
{4}6h[8:1]/2h[8:1],{8}7b-3[8:1],1bs5[8:1],7b,1b,,,6b/2b>5[8:1],
{16}1,8,{8}2,6-1[8:1],7/8,{24}6/1-5[8:1],2,3,{8}4,4,
3-8[8:1],{16}2,4,{8}3,5,6,{24}4/7,6/3,5/2,{8}4/1,4h[8:3],
{16}5,6,7,8,1s5[4:1],2,3,4,{2}1/5,
{16}7,1,8,2,6,4,5,3,7h,6,5/1h,2,3/8h,7,6/2h,3,
{24}7/4,8,1,2,3,4,{8}5/1h[8:1],{24}5,4,3,2,1,8,3/7h[8:1],{48},,,,{16}4,3,2,1,
8/3,2,1,8,7/2,1,8,7,{4}6h[32:7]/2h[32:7],{32}5b-1[8:1]/1bs5[8:1],8b/4b,7b/3b,6b/2b,,,,,{1}5b>5[2:3]/1b<1[2:3],
{4},,,,4,
4,5,2-4[8:1]/6-4[8:1],
,8-5[8:1]*-6[8:1],8-3[8:1]*-2[8:1],8,
{2}5w1[8:1],{8}7h[8:1],3h[8:1],{4}5-8[8:1]*-7[8:1],
5-2[8:1]*-3[8:1],5,{8}8h[8:1],7h[8:1],6h[8:1],5h[8:1],
{4}7-4[8:1],8,{8}2-5[8:1],1,{4}1,
7h[8:1]/4h[8:1],5h[8:1]/2h[8:1],{2}6w2[8:1],
4bV62[8:1]/8bV26[8:1],{8}3/7,2h[8:1]/6h[8:1],,1/5,
{4}4h[4:1]/8-3[8:1],{8}8,5>6[4:1],2h[4:1],5,,,{4}1-5[8:1]/4-7[8:1],
1/4pp1[8:3],{8}4/6,7,{4}8-2[0.3333##0.125]*-4[0.3333##0.125],
8b<3[4:1],{8}8/3V57[8:1],2,2-6[8:1],1,{4}2/8-4[8:1],
{2}8b/4-1[8:1]*-7[8:1],{8}4/3,5/7,{4}1/8-3[8:1]*-5[8:1],
8w4[8:1],8,{8}6h[16:1]/1h[16:1],4h[16:1]/2h[16:1],5h[16:1]/6h[16:1],3h[16:1]/7h[16:1],
{4}2-5[8:1],2/1,{8}7-4[8:1],8,{4}7/1,
2>7[4:1],7V53[4:1],{8}1,8,7,6,
{16}1,5,3,6,4,8,3,6,1,8,2,7,5,6,4,5,
{24}3b,2,1,8,7,6,1/5,2,3,4,5,6,2/7,3,4,5,6,7,4/8,3,2,1,8,7,
4,5,4,5,4,5,3,6,3,6,3,6,{32}2,1,8,7,6,5,4,3,8-4[8:1],1,2,3,4w8[8:1],5,6,7,
{1}8b,
E
