&title=Macuilxochitl
&artist=TOMOSUKE
&first=0.44
&des=Hatsune
&lv_5=14
&inote_5=(148)
||#2
{1},
{16}35,,,6h[16:3],,,4h[16:3],,,6,3,5,3,4,2h[16:3],,
{16},4,3,5,3,6,4,7,5h[16:3],,,6,,4,45,,
{16},,,3h[16:3],,,5h[16:3],,,3,6,4,6,5,7h[16:3],,
{16},5,6,4,6,3,5,2,4h[16:3],,,3,,5,54,,
{16}6h[1:1],,,,5V74[8:3],,,,,,,,,,,,
{16}3h[1:1],,,,2V47[8:3],,,,,,,,,,,,
{16}8,8h[16:7],,,6,,,,1<7[8:1],,,,2v8[16:3],,,,
{16}4,,,,6h[16:4],,,,2,2h[16:3],,,4,4h[16:3],,,
{16}5,,5,,6h[16:3]/4,,,3,4,3,6,5,7,1,8,2,
{16}4,3,7,5,6,2,4,4,,2,5pp8[8:5]/2pp5[8:5],,,,,,
(74){32},,,,,,,,,,,,||3/4
{32}6-1[148#8:1]/2-5[148#8:1],62,,,,,,,,,,,||3/4
||#1
(148){16}4/7,,5,5,6h[8:1],,5,,6h[8:1],,4,,5,,4,,
{16}3h[8:1],,4,4,3h[8:1],,4,,3h[8:1],,5,,4,,5,,
{16}6h[8:1],,5,5,6h[8:1],,5,,6h[8:1],,8,,1,,5,,
{16}3h[8:1],,4,4,3h[8:1],,4,,3h[8:1],,5,,6,,4,,
{16}6h[8:1],,5,5,6h[8:1],,4,,73,,6,,5,,4,,
{16}3h[8:1],,4,4,3h[8:1],,5,,26,,1,,8,,7,,
{16}3,5,4,6,5h[8:1],,7,4,5,4,6,3,5h[8:1],,3,4<8[16:5],
{16}2,,2,,,,3,4,5h[2:1],,,,,,,,
{16}8,5,8,5,64,,,,3,,3,,4,,5,,
{16}6h[8:1],,5,5,6h[8:1],,4,,3,4,3,4,3,,5,,
{16}1,1,,26,,38,,74,,,8h[16:2]/7h[16:3],,,,,,||first
memory
{16},73,,73,,16,,2-5[8:1]/5,,,1/2,,,,,,
||#1.5
{16}6,5,,5,7,,1,8,3,,42,,6,,57,,
{16}8,2h[16:3],,,1,3,,2,3,24,,,6,75,,,
{16}3,4,,4,2,,8,1,6,,57,,3,,42,,
{16}1,7h[16:3],,,8,6,,7,6,5-1[8:1]/7-4[8:1],,,75,,,,
{16},2,6,3,6,4,6,5,6,6h[8:3],,7,,4,,2,
{16}5,3h[8:3],,2,,4,,7,1>4[16:3],8,1,8,,,,,
{16}7,5,7,5,6,5,4,5,3,5,2,5,1,5,8,5,
(74){32}6,6h[16:3],,7,,4,,2,||2/4
(148){16}2-5[8:1]/5,,,1/2,,,,,65,65,,85,,35,,1h[4:1]/2v5[8:1],
||#2
(148){16},,,,,,,,4h[4:1]/3-5[8:1],,,,,,,,
{16}8h[4:1]/7v4[8:1],,,,,,,,8v3[12:1]/2-4[8:1],,,,82,,,,
{16}6h[8:3]/5,,5,,7,,7,,1-6[8:1],,,12,,,4,,
{16}5,,6p4[8:3],6,,,,,1,,,1,,,1,,
{16}3h[8:3]/4,,4,,7,,7,,1-6[8:1],,,12,,,4,,
{16}5,,6>3[16:2],6,,,,,2-5[8:1],,,21,,,,,
{16}6b,,7b/1b,,5,3,7,3,4,3,8,3,7,4,6,6,
{16}5b,,3b/8b,,4,6,2,6,5,6,1,6,2,5,3,3,
{16}4b,,7b/8b,,5,1,7,1,3,1,8,1,6,3,5,5,
{16}4b,,2b/1b,,4,8,2,8,6,8,5,7,4,6,3h[8:1],,
{16}5h[8:1],3,3,6h[8:1],4,4,7h[8:1],5,5,7h[16:3],,,5,53,,,
{16}3h[8:1],6,5,2h[8:1],5,4,1h[8:1],4,3,8b-4[8:1]*V61[4:1],,,,,,,
(74){32},,,,
||#3
(148){16}4-8[8:1],4,,,34,,5,5,7,,56,,53,,57,,||不要步进
{16}4<1[4:1],4,,,24,,3,4,5h[4:1],,,,1,2,3,4,
{16}2/5h[4:1],,,,2,3,4,5,8/6p1[4:1],,,,1<2[8:3],,,,
{16}5h[4:1],,,,,,,,5,,1,,8,,7,,
{16}5-1[8:1],5,,,65,,4,4,2,,43,,46,,42,,
{16}5>8[4:1],5,,,75,,6,5,4h[4:1],,,,8,7,6,5,
{16}7/4h[4:1],,,,8,7,6,5,2/4q1[4:1],,,,1q6[4:1],,,,
{16}5,,,,4qq2[8:2]*pp6[8:2],,,,,,,,,,,,
||#3.5
{16}1,8,2,4-7[8:1],,6,,4/7>3[4:1],,5,5,,,,,,
{16}6,5,,5,7-3[8:1],,2,,7/8,,1,1,4,5,6,7,
{16}1,8,2,4-7[8:1],,6,,4/7>3[4:1],,5,5,,,,,,
{16}6,5,,5,7-3[8:1],,2,,7/8,,1,1,4,5,6,7,
{16}1,8,2,3-7[8:1],,5,,3/6<3[4:1],,5,5,,,,,,
{16}6,5,,5,7-3[8:1],,2,,7/8,,1,1,4,5,6,7,
{16}1,8,2,3-7[8:1],,5,,3/6<3[4:1],,5,5,,,,,,
{16}6,5,,5,7-3[8:1],,2,,7/8,,1,1,4,5,6,7,
{16}3b/8b,,1b/5b,,,2,2,4,5,5,7,3,8-4[8:1],6,1,3,
{16}8b,,,,,,,,,,,,,,,,
