&title=Breach of Faith
&artist=Supire feat.eili
&first=1.54
&des=暗夜
&des_5=暗夜
&lv_5=14
&inote_5=(172){1}
1<2[4:7],,7p4[4:7],,2>1[4:7],,4q7[4:6],1-4[4:2],
5p2[4:7],,7<8[4:7],,2q5[4:7],,8>7[16:19],{2},{16}E8,E1,E2,E3,E4,E5,E6,E7,
4h[8:5],,,,2,,,,,,2,,1-5[8:1],,,,7h[8:5],,,,6,,,,,,6,,8-4[8:1],,,,
3h[8:5],,,,2,,,,,,2,,1/2-5[8:1],,,,6h[8:5],,,,7,,,,,,7,,8/7-3[8:1],,,,
1h[4:1],,,,4^7[8:1],,,2,4,,8-4[8:1],,,,2,,3h[4:1],,,,5^2[8:1],,,7,5,,1,,8,,7,,
62,,53,,4/C,,37,,46,,5/C,,1-5[10:1],8,2,7,1,,,,,,,,Ch[4:1],,,,,,,,
1h[16:13],,,,3,,,,,,3,,3,4,52,63,74,,6,5,6,,7,,1,8,2,,3V15^6-8[8:3],,45,,6<2V48[16:8]b,,,,,,,,,,,,1x,,27,,
6,5,6,5,6,,47,,3,4,3,,2,,8,1,7,,6,,5-7^8-4-2[32:11]/2,,3,,4>5-1[16:8]b,,,,,,,,,,,,8x,,27,,
3,4,3,4,3,,6,5,7b/4,,7,,1,8,2,,5,4,6,,3,7,3,7,2,3,4,5,8,7,6,5,3,2,1,8,4,5,6,7,
8h[8:5]/4,,,,6,,,,,,6-2[8:1],,,,,,5,,3,4,3,,2,,8,1,7,,6V84^3-1[8:3],,54,,3>7V51[16:8]b,,,,,,,,,,,,8x,,72,,
3,4,3,4,3,,52,,6,5,6,,7,,1,8,2,,3,,4-2^1-5-7[32:11]/7,,6,,5<4-8[16:8]b,,,,,,,,,,,,1x,,72,,
6,5,6,5,6,,3,4,2b/5,,2,,8,1,7,,4,5,3,,6,2,6,2,6,7,8,1,4,3,2,1,7,6,5,4,8,1,2,3,
{48}4h[48:23]/8h[48:11],,,,,,,,,,,,7h[1:0],6h[2:1],,,,,,,,,,,3h[1:0],2h[48:11],,,,,,,,,,5h[1:0],{4}4p8[4:1],8p4[4:1],4<8[4:1],8>4[4:1],4,1-5[8:1],1-3[8:1]/7-3[8:1],1-5[8:1]/7^4[8:1],1^4[8:1]/7,1/7p4[8:3],2-5[8:1],,3/7,
{48}5h[48:23]/1h[48:11],,,,,,,,,,,,2h[1:0],3h[2:1],,,,,,,,,,,6h[1:0],7h[48:11],,,,,,,,,,4h[1:0],{4}5q1[4:1],1q5[4:1],5V31[4:1],1V75[4:1],5,8-4[8:1],8-6[8:1]/2p6[8:1],8q4[8:1]/2^5[8:1],8^5[8:1]/2,8/2q5[8:3],7-3[8:1],,1/8,
{16}3,4,3,4,2,,6,5,6,5,7,,1,,82,,6,5,6,5,7,,3,4,3,4,2,,8,,17,,2,4,3,4,3,,6,5,6,7,6,,1,,82,,7,5,6,5,6,,3,4,3,2,3,,8,,17,,
2-6[32:3]/6,,,,5h[16:3],,,7,5q1[8:1],8,5,,1,,,,7-3[32:3]/3,,,,4h[16:3],,,2,4p8[8:1],1,4,,8,,,,2-6[32:3]/6,,,,5h[16:3],,,7,5,8,5,,1,4,2,4,3,,8,5,7,5,6,,1,5,2,6,3,7,4,8,
{2}1bx-7-5-3>5[8:25]/5bx-3-1-7[2:3]b,,,,Ch[1:1],,,,3q6[1:1],,6^1[2:1],1^4[2:1],4<1[16:11],,{16}E2,E3,E4,E5,E6,E7,E8,E1,D2,D3,D4,D5,D6,D7,D8,D1,
5xh[2:1],,,,3,,,,2x,,C,,6x,,,,4h[2:1],,,,6,,,,7x,,C,,3x,,,,
3/4h[2:1],,,,2,,,,1x,,C,,5x,,,,6/5h[2:1],,,,7,,,,8x,,C,,4x,,,,
2h[8:1]/4h[8:1],,,,3h[8:1]/5h[8:1],,,,4h[8:1]/6h[8:1],,,,5h[8:1]/7h[8:1],,,,
7/5h[8:1],,7,,6h[8:1]/4,,4,,5/3h[8:1],,5,,4h[8:1]/2,,2,,
3,4,3,4,2,5,2,5,1,6,1,6,8,7,8,7,8,8,8,8,8,8,8,8,8,8,8,8,8w4[8:1]b,8,8,8,
{2}8xb-6-1-5-2-4-6-3-7-2-8[1:3],,,,,,,Ch[4:1],
{16}
1x^4[8:1]/4x^7[8:1],,,,1/4-8-2-5[16:5],,,,8,,7,,6,,,,6x,5,6,7,6x,,6x,7,6,5,6x,,74,,,,
8x^5[8:1]/5x^2[8:1],,,,8/5-1-7-4[16:5],,,,1,,2,,3,,,,3x,4,3,2,3x,,3x,2,3,4,3x,,25,,18,,
7h[8:1],,6h[8:1],,5h[8:1],,4h[8:1],,3h[8:1],,2h[8:1],,Ch[8:1],,,,
2,4,3,1,3,,7,5,6,8,6,,1,,28,,7xb,6,5,8x,7,6,8xh[4:1],,5,,1,,2bx,3,4,1x,2,3,1xh[4:1],,4,,8,,27,,1xh[1:0],5h[1:0],2h[1:0],6h[1:0],3h[1:0],7h[1:0],
4x^1[8:1]/8x^5[8:1],,,,4/8-3-1-5[16:5],,,,5,,6,,7,,,,7x,6,7,8,7x,,7x,8,7,6,7x,,58,,,,
5x^8[8:1]/1x^4[8:1],,,,5/1-6-8-4[16:5],,,,4,,3,,2,,,,2x,3,2,1,2x,,2x,1,2,3,2x,,41,,8,,
2h[8:1],,3h[8:1],,4h[8:1],,5h[8:1],,6h[8:1],,7h[8:1],,Ch[8:1],,,,
8x-3[8:1],,7,,8x/6,,7,,1x-6[8:1],,2,,1x/3,,2,,
{24}8bx,1x,2x,3x,4x,5x,6bx/C,,,,,,1bx,8x,7x,6x,5x,4x,3bx/C,,,,,,1bx-6[8:1]/5bx-2[8:1],2x/6x,3x/7x,4x/8x,5x/1x,,1bx/5bx,,,,,,8h/4h,,,1h/5h,,,2h/6h,,,3h/7h,,,
{16}4V63[4:1],,,,4h[8:1],,,,4V25[4:1],,,,4h[8:1],,,,4-8[10:1],,,,4h[8:1],,,3h[8:1]/7h[8:1],,,26,,1,5,1,5,
1,,7,8,6,,3,4,2,,6,6,5,,2,1,3,,6,5,7,,3,3,4,,2,1,2,1,3,8,3^6[8:1],,7,,38,,8,,8-4[8:1],,1,,2/8,,2,,3h[8:3],,{24}2,1,8,7,,,5,,,4/5h[8:3],,,6b,7b,8b,1b,2b,3b,4b,,,
8-4[8:1],,,3,,,28,,,1,,,1^6[8:1],,,6,,,15,,,5,,,7x,8x,1x,2x,3x,4x,5xh[4:1]/6x,7x,8x,1x,2x,3x,4xh[1:0],,,3h[1:0]/6h[1:0],,,2h[1:0]/7h[1:0],,,1h[1:0]/8h[1:0],,,
{16}8V27[4:1],,,,8h[8:1],,,,8V61[4:1],,,,8h[8:1],,,,8-4[10:1],,,,8h[8:1],,,7h[8:1]/3h[8:1],,,62,,5,1,5,1,
5,,3,4,1,,4,4,2,,3,3,5,,6,5,8,,5,5,7,,6,6,4,,3,4,3,4,2,5,2-6[8:1],,6-2[8:1],,2,,7,,8-4[8:1],,4-8[8:1],,8,,3,,3,,2,1,2,,34,,5/6h[16:3],{24}7b,8b,1b,{16}2b,{12}8,8,8,
8b-4[8:1]/4^1[8:1]b,,,8/4b,,,1b-5[8:1]/5^8[8:1]b,,,1/5b,,,8bw4[8:1]b/4,,,8b,,,
{8}3b/5,5b/3,2b/6,7b/1,8b-2-7-3-6-4[4:10],,,,,,,,,,,,,,,,,,,,,,,,
{24}E4,E3,A2,E5,E6,A6,B4,B3,A2,B5,B6,D7,A3,A2,A1,A5,A6,A7,D3,D2,D1,D6,D7,D8,{1}C,E
