&title=isophote
&artist=パソコン音楽クラブ feat.ぷにぷに電機
&first=0.04
&des=Dororo
&lv_6=13+
&inote_6=(160)
{16}
,,,,,,,,,,,,,,,,
,,,,,,,,,,,,,,,,
7^2[2:3],,,,6x-4[8:1],,,,,,,,6x-4[8:1],,,,
,,,,6x-4[8:1],,,,,,,,6x-4[8:1],,,,
7^2[2:3],,,,6x-4[8:1],,,,,,,,6x-4[8:1],,,,
,,,,6x-4[8:1],,,,,,,,6x-4[8:1],,,,
2^7[2:3],,,,3x-5[8:1],,,,,,,,3x-5[8:1],,,,
,,,,3x-5[8:1],,,,,,,,3x-5[8:1],,,,
2qq7[1:1],,,,3x-5[8:1],,,,,,,,3x-5[8:1],,,,
,,,,3x>6[4:1],,,,Cf,,,,,,,,
7pp7[4:1],,,,4-2[8:1],,4-6[8:1],,,,,,,,,,
3pp2[4:1],,,,8^6[8:1],,8^2[8:1],,,,,,,,,,
7pp7[4:1],,,,4-2[8:1],,4-6[8:1],,,,,,,,,,
2>6[16:3],,,,8-5[8:1],,8-3[8:1],,,,,,,,,,
2qq2[4:1],,,,5-7[8:1],,5-3[8:1],,,,,,,,,,
6qq7[4:1],,,,1^3[8:1],,1^7[8:1],,,,,,,,,,
2qq2[4:1],,,,5-7[8:1],,5-3[8:1],,,,,,,,,,
8p5[2:1]*q3[2:1],,,,,,,,,,,,,,,,
3x^6[16:3],,5^8[16:3],,7^2[16:3],,1^4[16:3],,,,,,,,,,
5x^8[16:3],,7^2[16:3],,1^4[16:3],,3^6[16:3],,,,,,,,,,
7x^2[16:3],,1^4[16:3],,3^6[16:3],,5^8[16:3],,,,,,,,,,
7x-4[8:1],,8x-3[8:1],,,,,,1x-6[8:1],,2x-5[8:1],,,,,,
6x^3[16:3],,4^1[16:3],,2^7[16:3],,8^5[16:3],,,,,,,,,,
4x^1[16:3],,2^7[16:3],,8^5[16:3],,6^3[16:3],,,,,,,,,,
2x^7[16:3],,8^5[16:3],,6^3[16:3],,4^1[16:3],,,,,,,,,,
5xpp1[2:1],,2xpp1[8:3],,,,,,,,,,,,,,
1>5[16:3],,,,,,6<2[16:3],,,,,,4-1[8:1],,,,
4<8[16:3],,,,,,1>5[16:3],,,,,,7-4[8:1],,,,
7>3[16:3],,,,,,4<8[16:3],,,,,,2-7[8:1],,,,
5xV36[4:1],,,,6x-2[8:1],,2x-7[8:1],,,,,,,,,,
8<4[16:3],,,,,,3>7[16:3],,,,,,5-8[8:1],,,,
5>1[16:3],,,,,,8<4[16:3],,,,,,2-5[8:1],,,,
2<6[16:3],,,,,,5>1[16:3],,,,,,7-2[8:1],,,,
4xq1[2:1],,5xp8[8:3],,,,,,,,,,,,,,
1x-4[8:1],,,,5-3[8:1],,5pp5[4:1],,,,,,1-4[8:1],,,,
1x-6[8:1],,,,5-7[8:1],,5qq5[4:1],,,,,,1-6[8:1],,,,
1x-4[8:1],,,,5-3[8:1],,5pp5[4:1],,,,,,4qq5[4:1],,,,
5x<4[4:1],,,,,,,,5xw1[8:1],,,,,,,,
8x-5[8:1],,,,4-6[8:1],,4qq4[4:1],,,,,,8-5[8:1],,,,
8x-3[8:1],,,,4-2[8:1],,4pp4[4:1],,,,,,8-3[8:1],,,,
8x<1[4:3],,,,,,,,,,,,,,,,
7xp6[8:3],,,,,,,,1x^4[8:1],,,,,,,,
3xV52[4:1],,,,8-5[8:1],,1-5[8:1],,,,,,,,,,
2-5[8:1],,5-3[8:1],,7-5[8:1],,8-5[8:1],,,,,,,,,,
6xV47[4:1],,,,1-4[8:1],,8-4[8:1],,,,,,,,,,
7-4[8:1],,4-6[8:1],,2-4[8:1],,1-4[8:1],,,,,,,,,,
2xV48[4:1],,,,7-4[8:1],,1-4[8:1],,,,,,,,,,
2-5[8:1],,5-3[8:1],,7-5[8:1],,8-5[8:1],,,,,,,,,,
7xV51[4:1],,,,2-5[8:1],,8-5[8:1],,,,,,,,,,
7-4[8:1],,4-6[8:1],,2-4[8:1],,1-4[8:1],,,,,,,,,,
1xs5[2:1]*z5[2:1],,,,,,,,,,,,,,,,
7-1[8:1],,3-7[8:1],,7xV53[8:1],,3V15[16:3],,,,,,7x-4[8:1],,,,
7-1[8:1],,3-7[8:1],,7xV53[8:1],,3V15[16:3],,,,,,7x-4[8:1],,,,
7-1[8:1],,3-7[8:1],,7xV53[8:1],,3V15[16:3],,,,,,7x-4[8:1],,,,
7-1[8:1],,3-7[8:1],,7xV53[8:1],,3V15[16:3],,,,,,7x-1[8:1],,,,
7-5[8:1],,3-7[8:1],,7xV13[8:1],,3V51[16:3],,,,,,7x-2[8:1],,,,
7-5[8:1],,3-7[8:1],,7xV13[8:1],,3V51[16:3],,,,,,7x-2[8:1],,,,
7-5[8:1],,3-7[8:1],,7xV13[8:1],,3V51[16:3],,,,,,7x-2[8:1],,,,
7-5[8:1],,3-7[8:1],,7xV13[8:1],,3V51[16:3]*V57[8:1],,,,,,,,,,
2-8[8:1],,6-2[8:1],,2xV46[8:1],,6V84[16:3],,,,,,2x-5[8:1],,,,
2-8[8:1],,6-2[8:1],,2xV46[8:1],,6V84[16:3],,,,,,2x-5[8:1],,,,
2-8[8:1],,6-2[8:1],,2xV46[8:1],,6V84[16:3],,,,,,2x-5[8:1],,,,
2-8[8:1],,6-2[8:1],,2xV46[8:1],,6V84[16:3],,,,,,2x-8[8:1],,,,
2-4[8:1],,6-2[8:1],,2xV86[8:1],,6V48[16:3],,,,,,2x-7[8:1],,,,
2-4[8:1],,6-2[8:1],,2xV86[8:1],,6V48[16:3],,,,,,2x-7[8:1],,,,
2-4[8:1],,6-2[8:1],,2xV86[8:1],,6V48[16:3],,,,,,2x-7[8:1],,,,
6b-3[8:1]*-4[8:1],,,,6q7[8:3],,,,,,,,,,,,
3x<7[2:1],,4^7[8:3],,5^8[8:3],,6^8[4:1],,,,,,,,,,
2x>6[2:1],,3^6[8:3],,4^7[8:3],,5^7[4:1],,,,,,,,,,
1x>5[2:1],,2^5[8:3],,3^6[8:3],,4^6[4:1],,,,,,,,,,
1xv6[8:1],,1xv4[8:1],,,,,,8xv5[8:1],,8xv3[8:1],,,,,,
6x>2[2:1],,5^2[8:3],,4^1[8:3],,3^1[4:1],,,,,,,,,,
7x<3[2:1],,6^3[8:3],,5^2[8:3],,4^2[4:1],,,,,,,,,,
8x<4[2:1],,7^4[8:3],,6^3[8:3],,5^3[4:1],,,,,,,,,,
8x-2[8:1],,8x-6[8:1],,8x-3[8:1],,8x-5[8:1],,8x-4[8:1],,,,,,,,
3^6[8:1],,,,8v7[8:1],,8-2[8:1],,,,,,6^3[8:1],,,,
3^6[8:1],,,,8-2[8:1],,8qq3[8:3],,,,,,,,,,
2-4[8:1],,,,1-5[8:1],,,,8-6[8:1],,,,,,,,
5-3[8:1]*v2[8:1],,,,5p1[8:1]*-8[8:1],,,,5<3[4:1],,,,,,,,
6^3[8:1],,,,1v2[8:1],,1-7[8:1],,,,,,3^6[8:1],,,,
6^3[8:1],,,,1-7[8:1],,1pp6[8:3],,,,,,,,,,
5-7[8:1],,,,4-8[8:1],,,,3-1[8:1],,,,,,,,
6v1[8:1]/2v5[8:1],,,,6qq7[4:1]/2qq3[4:1],,,,,,,,,,,,
1-3[8:1],,,,1-5[8:1],,5^8[4:1],,,,8^3[4:1],,,,3^6[4:1],,
,,6^1[4:1],,,,1^4[4:1],,,,4q5[8:3],,,,,,
,,,,1-7[8:1],,,,1-5[8:1],,5^2[4:1],,,,2^7[4:1],,
,,7^4[4:1],,,,4pp3[8:3],,,,,,,,,,
8-6[8:1],,,,8-4[8:1],,4^1[4:1],,,,1^6[4:1],,,,6pp4[8:5]*pp2[8:5],,
,,,,,,,,,,,,,,,,
3>6[4:1],,,,,,,,5-8[8:1],,,,4-1[8:1],,,,
3>6[4:1],,,,,,,,5s1[4:1],,,,,,,,
4-2[8:1]*-6[8:1],,,,,,,,5-8[8:1],,,,,,,,
6-8[8:1]*-4[8:1],,,,,,,,5-2[8:1],,,,,,,,
4-2[8:1]*-6[8:1],,,,,,,,5-8[8:1],,,,,,,,
6^3[8:1],,,,6<3[4:1]*q3[4:1],,,,,,,,,,,,
5-7[8:1]*-3[8:1],,,,,,,,4-1[8:1],,,,,,,,
3-1[8:1]*-5[8:1],,,,,,,,4-7[8:1],,,,,,,,
5-7[8:1]*-3[8:1],,,,,,,,4-1[8:1],,,,,,,,
Ch[4:3],,,,,,,,,,,,,,,,
,,,,,,,,,,,,,,,,
,,,,,,,,,,,,,,,,
E
