&title=Search of "Life is Beautiful"
&artist=GYARI
&first=-1.429
&des=見つけた
&lv_5=13+
&inote_5=(94)
{1}
,
{4}
1x<4[4:3],,,,8x<3[4:3],,,,5xp4[4:3],,,,1xp8[4:3],,,,
{8}
6x>8[8:5],6xp8[4:2],
{4}
,,,
{8}
7xpp2[8:5],7x<2[4:2],
{4}
,,,8x<8[8:5],,,,
{8}
2x,2x,3xpp8[16:5],,7hbx[4:2],,
{4}
,5h[4:1],6q3[4:1],3p6[4:1],4,
{8}
3pp4-1-3[4:2],3,E8,,7h[4:1],,,
{16}
2,,6h[8:1],,1,1,7h[8:1],2,3V14[16:3],4,6h[8:1],,,,5h[4:1],,,,
{16}
E4,E5,E3,E6,E2,E7,E1,E8,4x,6,3,7,1bx-5[8:3],8,2,7,3,6,4h[4:2],,
{8}
,,3,5,6q2[8:1],2/8,
{16}
6/4,,5x,5p1[8:1],,7,4,6/5x,,5,5h[8:1],,3p7[8:1],,1/7x,,5/3,,4xq5[4:1],4,,,6/4x,6h[16:3],,,,7x,5V37[16:3],,6/4,,3/5,,1x,,2,6,4h[16:3],8x,,6,6,2x,4qq5[4:1],,2/8x,,4/6,,7x,7,,6v8[8:1],6,7x/3,,4/6,,1h[16:3],,,5bx>2[8:1],,
7h[8:1]/4x,,5,6x,,5pp3[4:1],1x,,2,5,3,,4<2[4:1],,2hx[8:1],,4bx,,3,3x,,4q5[4:1],4x,,8,4,7x,,7h[8:1],,,,3bhx[8:1],,4,4h[16:3],,5>6p1[16:9],5,5h[16:5],,,,,,,,,4xq1[16:3],,,,4hx[8:3],,,,
{8}
3x,5,6q3[32:5],8/2,
{16}
4/6b,,5x,5p8[32:5],,7,4,6/5x,,5,,2/6,3p6[32:5],5,1/7x,,5/3,,5xp4[4:1],5,,6,5x,7,,8,,6,4V62[16:3],5,3,,4bx/6,,8x,,7,3,5h[16:3],1x,,3,3,7x,7qq8[4:1],5,3x/1x,,7bx/5,,2x,2,,3,3,4hx[16:3]/6x,,6,6,7h[16:3]/1q5[8:1],,,,
6v8[8:1]/1b,,,,6/1>5[32:5],,,,6p4[4:1]/1b,,,,6/1>1[32:13],,,,1b,,,7,7,,5,5,,6/3,4,5,6/3,5,4,2x/7x,,6h[8:1],4,4,3h[8:1],5,5,B3/6,5h[8:1],,,3/E7,4h[8:1],,,7/B2,5h[4:1],,,1,,3,7,2,6,
{32}
1,2,3,4,5,6,7,8,1-5b[4:4],2h,3h,4h,5h,6h,7h,8h,
{4}
1bhx[16:5],,7x,3,
{192}
,
{384}
,
{16}
4h[16:7],,,,5,5,6,6h[4:1],,B1,,5,4,3,5h[4:1],,3,,B2,4,5,7h[8:1],,3,,5h[8:1],1x,E2,6,2x,5,1x,4,8hx[16:3],,,B3,5x,7,1b,,
{32}
7,6,5h[16:3],,
{16}
4,4,B3,6,6,2h[8:1],,5,4,6h[8:1],,C,7h[16:3],,,2,2,6,1h[8:1],,B6,3h[4:1],4,4h[16:3],,,2,5,4h[16:3],B7,,
{32}
6,,2,3,
{16}
4h[8:1],5,5,6,2,B5,2,7,1,1,8,8,1h[8:1]/7,,B7,
{32}
6,5,
{16}
4,2,2h[8:1]/7,,8h[8:3],3,3,C,,5,5,7,1h[16:7],,4,4,C,,6,6,2,8h[16:5],,2<2[8:11],2,B1,,,B4,,,C,,,E1,,,E5,,,C,,,B8,,,B5,,,Ch[16:3],,,
{4}
,,,,5h[8:5],,1hx[4:1],,6h[4:2]/5,,,,3h[4:2]/4,,Ch[4:2],,
{8}
2q8[4:1],2,8q4<7[8:3],,7x,,8,8,1/7p1[4:1],7,1p5>2[8:3],,2x,,1,1,1qq3[8:3],
{16}
5,5,4,,4,,5qq7[8:3],,6,,2,,1,,1,,2p4[8:3],2,
{8}
6p8[4:1],,,,,3/7,
{16}
6h[8:1]/2,,4,,3h[8:1]/7,6,5,,6h[8:1]/2,,5,,3h[8:1]/7,,4,,6b/4,5,5,2b/4,3,3,4/7b,6,6,1b/5,2,2,3b/7,3/7,4/8b,4/8,1b/5b,,
{32}
3,4,3,4,2,5,2,5,3,4,3,4,2h[8:1],,,,5,4,5,4,6,3,6,3,7,2,8,1,
{4}
8h[4:3],,,
{8}
,2/6
,
{64}
1bx,2,3,4,5,6,7,8,1x,2,3,4,5,6,7,8,1bx,2,3,4,5,6,7,8,1x,2,3,4,5,6,7,8,1bx,2,3,4,5,6,7,8,1x,2,3,4,5,6,7,8,1bx,2,3,4,5,6,7,8,1x,2,3,4,5,6,7,8,1bx,2,3,4,5,6,7,8,1x,2,3,4,5,6,7,8,1bx,2,3,4,5,6,7,8,1x,2,3,4,5,6,7,8,1bx,2,3,4,5,6,7,8,1x,2,3,4,5,6,7,8,1bx,2,3,4,5,6,7,8,
{16}
1x/Cf,,
{32}
2/5,,3,4,3qq4[32:7],,2/D5,D6,D7,D8,D1,,
{16}
3x,6q8[32:7],,5,5,6/1x<4[16:3]*<4[16:3],,4x,4x>8<8[16:5]*>8<8[16:5],Ch[16:3],
{4}
,
{32}
E7,E6,E5,E4,E3,E2,E1f,,,,,,,,
{48}
2bxq4b[32:7],3x,4x,5x,6x,7x,8x,1x,,,,,
{4}
D3f/5bh[16:3],
{48}
6bxp4b[32:7],7x,8x,1x,2x,3x,4x,5x,,,,,
{4}
D7f/3bh[16:3],
{48}
2bxp8b[4:1],1x,8x,7x,6x,5x,4x,3x,,,,,
{16}
D3f/8bx<1b[16:5],,,6x,,,8,8,7,6,5,4,3/6,4,5,7h[8:1]/2-5-3b[32:5],,3,6,7-4-6b[32:5]/2,8,,8,7/2xV48b[32:5],1,,,2/7xV51b[32:5],7,,,7/2x,2,3hx[8:1],,6hx[8:1],,5,7/8,6,5,4,1/2,3,4,
{32}
5,3,6,4,7b,,,,1/5pp4b[16:3],,,,8,1,2,3,4/5x,,2,,,,
{16}
1,2>8b[16:3],6,3h[32:3],,2x,,1xh[64:13],,
{64}
B2,C,B6,A6,,,,,3bxp8b[4:1],4x,5x,6x,7x,8x,1x,2x,3x,4x,5x,6x,7x,8x,1x,2x,
{8}
3bx/Cf,
{4}
,
{16}
6xq8>4<8>4b[4:3]/4,,4/2,,
{4}
6b/4,5bx,1bx,2xp8<4>8<4[4:3],4x/2x,5x,7x,2xqq5<4[8:5]*qq5<4[8:5],3hx[4:2],,
{8}
,2,
{32}
6,5,7,,
{16}
1<3[16:3]/3q1[16:3],,7/1,,1b/3b,,,,,2/4,3,4/6,5,6,7p2[16:3]/5,8,1/3,,2>7[16:3],1,,8,8,1,,2,3,3,4/8,,6pp4>5[8:5],6,1/5,,3h[8:3],,,,,,,,4,4,3,,5w1[4:1],5,6/4,,,,,,,,2/8,,4,4,3/5,3/5,2q5[4:3]/6,2/6,1/7,1/7,
{4}
Ch[4:3],,,
{16}
,,7/3,1bx/5bx,,,,,,,,,,,,,
E
