&title=Elevator
&artist=Eliminate
&first=0.07
&des=
&des_5=Lucivator
&des_7=
&lv_5=13+
&inote_5=(150){4}1b/5h[4:7],B2,,B4,
,B6,,B8,
4h[4:7],B1,,B3,
,B5,,6b,
2b/8h[4:7],B3,,B5,
,B7,,B1,
2h[4:3],B4,,B6,
{1}8V61-5[2:1]*-6-1-4-2[8:5],
{4}6b/1bh[8:7],5h[8:1],6h[8:1],5h[8:1],
3h[4:3]/7h[8:1],6h[8:1],7h[8:1],4bxh[8:1],
2b/8bh[8:7],4h[8:1],3h[8:1],4h[8:1],
6h[4:3]/2h[8:1],4h[8:1],3h[8:1],5bxh[8:1],
1b/7bh[8:1],6h[8:1]/4h[8:1],3h[8:1]/5h[8:1],2h[8:1]/4h[8:1],
8b/1bh[8:1],2h[8:1]/4h[8:1],3h[8:1]/5h[8:1],4h[8:1]/6h[8:1],
{8}7b-4[8:1],5,7,3,2b-5[8:1],4,2,6,
8-6[8:1],8-3[8:1],8x-5[8:1],8x-2[8:1],8x-4[8:1],8x,{4}8x,
{8}1b,{16}2,4,3V52-6[16:5],5,4,6,,,,,,,,,{8}8b,
{16}7,5,6V47-3[16:5],4,5,3,,,,,,,,,{8}4b,
{16}3,1,2V41-6[16:5],8,1,7,,,,,,,,,{8}5b,
{16}6,8,7qq4[8:3],1,8,2,{8}7x,3x,3x>1[8:1],3x,
3x,5<7[8:1],5,5x/4,4-1[8:1],4,4x/6<8[8:1],6,
6x/4,4>2[8:1],4,4x/5,5-8[8:1],5,5x/3,3,
{16}2x,5,4,5,1,5,4,5,8,5,4,5,7,5,4,5,
{4}3>1[4:1],1v8[4:1],8-6[8:1],5h[8:1],
{8}4,{16}6,5,{8}8,{16}3,4,1-5[8:1],5,,5,{8}1,7,
{16}3,5,4,6,{8}1,{16}5,3,8-4[8:1],4,,4,{8}8,2,
7/1,5,2/8,{16}3,4,1-5[8:1],5,,5,{8}1,8,
{16}3,5,4,6,{8}1,{16}6,5,{8}8-4[8:1],4x,8,3,
7/1,5,2/8,{16}3,4,1-5[8:1],5,,5,{8}1,8,
{16}3,5,4,6,{8}1,{16}8,4,1p5[8:1],3,,3,{8}1x,2,
2-6[8:1],8,2,1-5[8:1],4,1,8-4[8:1],6,
8,7-3[8:1],3,7,1h[16:1],1h[16:1],{4}2b-6[8:1],
2/5,{8}7/1,{16}6,5,8-4[8:1],4,,4,{8}8,2,
{16}6,4,5,3,{8}8,{16}4,6,1-5[8:1],5,,5,{8}1,7,
2/8,4,7/1,{16}6,5,8-4[8:1],4,,4,{8}8,1,
{16}6,4,5,3,{8}8,{16}3,4,{8}1-5[8:1],5x,1,6,
2/8,4,7/1,{16}6,5,8-4[8:1],4,,4,{8}8,1,
{16}6,4,5,3,{8}8,{16}1,5,8q4[8:1],6,,6,{8}8x,7,
8v3[8:1],4,8x,2-8[8:1],5,2x,6v3[8:1],2x,
6x,4-2[8:1],1,4x,{32}E8,E1,E2,E3,E4,E5,E6,E7,{4}C,
{8}1b,{16}2,4,3V52-6[16:5],5,4,6,,,,,,,,,{8}8b,
{16}7,5,6V47-3[16:5],4,5,3,,,,,,,,,{8}2b,
{16}3,5,4v3-1[16:5],6,5,7,{2}4xh[32:1],
{8}7b,{16}6,4,5pp1[8:3],3,4,2,{8}5x,3h[16:1],3h[16:1],3,
8/2,4,8/1,4,7/1,3,7/8,5,
1/7,6,1/8,5,2/8,4,1/2,4,
{16}2,1,2,8,2,7,2,6,2,5,2,4,2,3,2,1,
{4}2v5[8:1],1q6[8:1],{2}8p3[8:1],
{8}6h[16:1],{16}4,5,3,5,2,5,{8}1x,{16}1,7,1,6,1,5,
2,6,2,6,3,7,3,7,{8}2x>5[8:1],5,{4}2,
{8}7h[16:1],{16}3,4,3,5,3,6,{8}3x,{16}7,3,7,2,7,1,
{8}8,{16}6,5x/7x,,3,{8}2x/4x,8-4[8:1],4,{4}8x,
{8}1h[16:1],{16}6,5,7,4,8,3,{8}1x,{16}3,4,2,5,1,6,
8,7,8,7,1,6,1,6,{8}2x-5[8:1],5,{4}2,
{8}8bx-5[8:1],4,8h[16:1],3b-6[8:1],5,3h[16:1],7bx-2[8:1],4,
7,4b-1[8:1],5h[16:1],4x,{32}E7,E6,E5,E4,E3,E2,E1,E8,{4}E7f,
{8}1h[16:1],{16}6,5,7,4,8,3,{8}1x,{16}2,5,3,5,4,5,
6,5,7,5,8,5,1,5,{8}2x>5[8:1],5,{4}2,
{8}8h[16:1],{16}4,7,4,6,4,5,{8}3x,{16}5,1,5,2,5,3,
{8}6,{16}7,6x/8x,,2,{8}1x/3x,4-8[8:1],8,{4}4,
{8}6h[16:1],{16}1,7,2,8,3,1,{8}4x,{16}1,3,8,2,7,1,
6,8,6,8,7,1,7,1,{8}8x-4[8:1],4,{4}8,
{8}2-4[8:1],4,2,5-7[8:1],7,5,1,2/4,
3x/5,4x/6x,7x/5x,1x/8,3bx/2x,5x/4x,{4}6bx/7bx-4[8:1],
7bx/1xh[4:7],B7,,B5,
,B3,,B1,
3b/7h[4:7],B8,,B6,
,B4,,B2,
1bh[8:1]/8h[8:1],7h[8:1]/5h[8:1],6h[8:1]/4h[8:1],5h[8:1]/3h[8:1],
8h[8:1]/1h[8:1],2h[8:1]/4h[8:1],3h[8:1]/5h[8:1],4h[8:1]/6h[8:1],
{8}7b/8,6,4/5,3,2/1,3,5/4,6,
{4}8x/7-5[8:1],7/1x-3[8:1],1/8x-4[8:1],8x/2,
{8}1b,4/6,8,{16}3x,4,1-6[8:1],6,{8}5,3x/1,2,
7/8x-5[8:1],6,2/8,{16}3x,4,1-6[8:1],6,{8}5,3x/1,2,
7/8b-4[8:1],1,8/2,{16}3x,5,1-5[8:1],6,{8}4,3x/1,2,
1x<6[8:1],7x,2/1,{16}3x,5,1,6,{8}4,3/8b-4[8:1],1,
8b/7,6,2,{16}6x,5,8-3[8:1],3,{8}4,6x/8,7,
2/1x-4[8:1],3,7/1,{16}6x,5,8>3[8:1],3,{8}4,6x,7,
8bx-5[8:1],6,8,4,1bx-4[8:1],3,1,5,
5-7[8:1],5-2[8:1],5x-8[8:1],5x-3[8:1],5x-1[8:1],5x,{4}5x,
{8}8bx,{16}7,5,6V47-3[16:5],4,5,3,{2}E6f,
{8}1b,{16}2,4,3V52-6[16:5],5,4,6,{2}E4f,
{8}5b,{16}6,8,7V58-3[16:5],1,8,2,{2}E7f,
{8}4b,{16}3,1,2pp5[8:3],8,1,7,{8}B2f,6xh[16:1],6xh[16:1],6x,
7b,8-4[8:1],5,8b,2-5[8:1],4,2b,6,
7b-4[8:1],5,7,2b,1-5[8:1],4,1b,6,
{16}7b,1,7,2,7b,3,7,4,7b,3,6,2,5b,2,4,2,
{8}3-5[8:1],3,1-3[8:1],1,7-1[8:1],7,5>4-6-3-7-2<8-3-7-4-6>5b[1:6],5,
E
