&title=Duddlethink
&artist=Avans
&first=0
&des=PanMSK
&des_5=PanMSK
&clock_count=4
&lv_5=13+
&inote_5=(123){4},,,,,,,,,,,,,,,,,,,,{8}3,
{16}5x>6[2:1],4h[16:3],{2},{24}E4,B3,B2,E2,{12},5xh[8:7],
8,{48},{16}8pp4[16:7],{4},,,{8}5,
{16}3qq7[2:1],3,{2},{24}A6,D6,A5,D5,{12},8x,
4,{48},{16}4h[16:3],{8},3,5/2,6/1,{4}7/8,
{8}6,{16}4x<3[2:1],5h[16:3],{2},{24}E6,B6,B7,E8,{12},4xh[8:7],
1,{48},{16}1qq5[16:7],{4},,,{8}4,
{16}6x,6h[16:3],{8},5,,4/5,{24}A3,D3,A2,D2,{12},7x,
8,{48},{16}8h[16:3],{8},7,1/6,5/2,{4}4b/3b,
5h[8:1],{48}6/B3,B4,{24},,,,,{8}5h[8:1],{16}3,5,{8},2h[4:1],
4,5,{48}6/B3,B4,{24},,,,,{12}1/5h[12:1],2,{24},3,{12},{6}4/5,
{4}6h[8:1],{48}7x/B3,B4,{24},,,,,{12}3/6h[12:1],4,{24},5,{12},{6}6,
{4}7<4[8:1],B3/E3/B2,1x-3[12:1],{48}1x/B4,C,{24}B8,{6},{4}4xh[8:1],
{48}3/B6,B5,{24},,,,,{8}4h[8:1],{16}6,4,{8},7h[4:1],
5,4,{48}3/B6,B5,{24},,,,,{16}1,1,,2/4,{8},3/5,
{16}4,6,5,7,,7h[16:3],{8},1,{24}2,,3/5,{16},{48}3,,4,{12},{24}6,
{8}5,{24}3,4,2,{12}4,1,{48},{16}8x,{12}8x-4[8:1],1,{3},{12}3,
{24}3,5,,5,{12}2-8[8:1],{24}2,4,,4,{4},{12}4,{24}4,2,,2,
{12}5,{24}5,3,,3,{12}6V47>1[12:5],{24}6,4,,4qq2[24:5],{2}6,
{12}3,{24}3,1,,1,{12}2-4[8:1],{24}2,8,,8,{4},{12}8,{24}8,2,,2,
{12}4,{24}4,3,,3,{12}5-1[8:1],{24}5,1,,1qq7[6:1]*pp3[6:1],{2}5,
{12}8x,{24}8,1,,1,{12}4<7[8:1],{24}4,3,,3,{4},{12}1,{24}1,8,,8,
{12}2,{24}2,5,,5,{12}1q5[8:1],{24}1,7,,7V53[6:1],{2}1,
{12}1,{24}1,8,,8,{12}5>2[8:1],{24}5,6,,6,{4},{12}5,{24}5,1,,1,
{12}4,{24}4,3,,3,{12}5<7[8:1],{24}3,4,,2,{2}5p1[8:1]*v8[8:1],
{12}7x,{24}7,5,,5,{12}8-4[8:1],{24}3,1,,2,{4}8,{12}1,{24}1,8,,8,
{12}2,{24}2,5,,5,{12}1<6[8:1],{24}8,2,,5q3[6:1],{2}1,
{12}1x,{24}1,5,,5,{12}8-3[8:1],{24}6,1,,7,{4}8,{12}5,{24}5,8,,8,
{12}7,{24}7,2,,2,{12}5q1[8:1],{24}8,7,,2<6[6:1],{2}5,
{12}5x,{24}5,3,,3,{12}7-3[8:1],{24}1,8,,2,{4}7,{12}2,{24}2,1,,1,
{12}3,{24}3,4,,4,{12}2p6[8:1],{24}1,3,,4q5[24:5],{2}2,
{12}2x,{24}2,7,,7,{12}3>8[8:1],{24}5,4,,6,{4}3,{12}5,{24}5,1,,1,
{12}7,{24}7,3,,3,{12}5v2[8:1],{24}1,7,,3,{8}5V38b[16:3],4,5,7,
{16}5xh[8:1],{8},{16}5,{8},5h[8:1],{16},5,{8},{16}5h[8:1],{8},{16}5/6,
{8},5h[8:1],{16},5/6,{8},{16}5,{8},{16}4/7h[24:7],{4},{48}4xh[8:1]/E7,
B6,,,,,,,,{16}4,{8},4h[8:1],{16},4,{8},{16}4h[8:1],{8},{16}4/3,
{8},4h[8:1],{16},4/3,{8},{16}4,{8},{16}5/1h[24:7],{4},{48}4x/E1,
B8,{12},{16}5,6/2x,{8},8,3/C,2,{48}4x/E1,B8,{12},{16}5,6/2x,
{8},8,C/3<6[8:1],6xp1[16:3],{2}7h[16:3],
{48}6/E1,B8,{12},{16}5,4/8x,{8},1,6/C,7,{48}5x/E1,B1,{12},{16}4,3/7x,
{8},1,C/6>3[8:1],3xq8[16:3],{2}2h[16:3],
{8}8/2,{16}3,3,{8}1pp8[4:1],4,1/6h[16:3],{4},{16}7,8/7h[16:3],
{8},1,5h[8:1]/2V47[4:1],1,7<3[16:3],{16}8,1,{4},{8}7,
{16}1,1,{8}4pp4[4:1],3,7h[16:3]/4>1[8:1],{4},{16}6,6h[16:3],
{8},E1/B1,3h[8:1],E1/B8,7x,{16}6/4,6h[16:3]/4h[16:3],{4},{8}1/7,
{16}6,6,{8}8qq1[4:1],5,8/3h[16:3],{4},{16}2,2/1,
{8},8,4h[8:1]/7V52[4:1],8,2>6[16:3],{16}1,8,{4},{8}1,
{16}7,7,{8}4pp8[4:1],6,4/2h[16:3],{4},{16}1-5[8:1],1,
{8},1,6,6x/5x,4/3,2/1,{4}8b/7b,
{64}5h[8:1]/1x>4[12:1],E1,B8,B7,{16}E7,{8},{4}1/6xh[8:1],{8}7/1,{16}2,4,{8}4/3x-1[12:1],2/5,
3/6-2[12:1],7,8<5[12:1],1,8/3,{16}2,8/4,{8},1,
{64}6h[8:1]/2x<7[12:1],E3,B3,B4,{16}E5,{8},{4}2/5xh[8:1],{8}2/4,{16}3,6,{8}6/5,{16}3,2,
{8}5/1-5[12:1],7-4[12:1],1,7,{16}1,2,,4x/3,{8},6/5,
{64}4h[8:1]/8x<5[12:1],E1,B1,B2,{16}E3,{8},{4}8/3xh[8:1],{8}8/2-6[8:1],{16}6-2[8:1],4,{4}8xh[8:1],
{8}7-5[12:1],8/4-8[12:1],7,4,5,{16}2,4/8,{8},8,
{64}3h[8:1]/7x>2[12:1],E7,B6,B5,{16}E5,{8},{4}7/4xh[8:1],{8}5/7,{16}6,1,{8}5/1,{16}6,5,
{8}3/4x-7[12:1],1x-5[12:1],4,1,{16}8,8,5<8b[8:1],6/5,{8},{24}1x,2,3,
{8}4b-8[12:1],5,4/6<1[8:1],5,6/2,{16}3,3,{8}4-8[12:1],5/3,
4/7-3[12:1],6,7/2,8,{16}1,1,4>1[8:1],6/2,{8},{24}8,7,6,
{8}5pp4[16:3],4x,5/8x,1,{16}2,2,4,3h[16:3],{8},{16}5,6,
{8}4/7-4[12:1],8-3[12:1],7,8,{16}6,6,4x>1b[8:1],4/5,{8},{24}8,7,6,
{8}5b-1[12:1],4,5/3>8[8:1],4,3/7>4[6:1],{16}5,5h[16:3],{4},{8}5x/6-3-5[6:1],
8/7,1/6,8,{16}1,1,5,3/7,{8},{24}8/4,7/3,6/2,
{8}5b/1b,6/2,8qq5[4:1]/4qq1[4:1],6/2,8/4,{4},{16}2,2,
{24}5x,4,5,3x,4,3,5x,6,7,1/8,2,3,{2}4/8bz4[4:1],
{12}1x,{24}1,5,,5,{12}3,{24}5,4,,6,{4}5h[4:1],{12}7,{24}7,4,,4,
{12}5,{24}5,2,,2,6,5,6,4,5,4,{2}8pp3[4:1],
{12}4x,{24}4,5,,5,{12}3,{24}8,1,,7,{4}8h[4:1],{12}6,{24}6,1,,1,
{12}8,{24}8,3,,3,8,7,6,4,3,2,{2}1pp5[4:1],
{12}6x,{24}6,4,,4,{12}8,{24}2,1,,3,{4}5h[4:1],{12}1,{24}1,8,,8,
{12}3,{24}3,6,,6,3,4,3,5,4,5,{2}1q3[4:1],
{12}5x,{24}5,4,,4,{12}6,{24}2,5,,4,{4}7h[4:1],{12}5,{24}5,8,,8,
{12}1,{24}1,6,,6,1-5[8:1],2,3,4/5-1[8:1],6,7,{2}1/8<2[16:3],
E
