&title=大香蕉
&artist=龙智祥/吴非华
&first=-0.35
&des_1=磷化锆
&des_2=磷化锆
&des_3=磷化锆
&des_4=磷化锆
&lv_4=11
&des_5=!?蕉蕉?!
&lv_5=13+
&des_6=磷化锆
&des_7=磷化锆
&des=磷化锆
&inote_4=(125){4},,,,{16},,,{32},A2/A3/E3/D3/Ch[32:25],
{4},,,3,
3,3,3,
6,6,6,6,
4,4,4,4,
5,5,5,5,
{8}B1,5,B2,5,B3,5,B4,5,
B5,4,B6,4,B7,4,B8,4,
{4}1h[1:1],E5,C,E1,
8h[1:1],E5,C,E1,
1,2,3,4v2-8[2:1]*v6-8[2:1],
{1},{4}8h[1:1],
B4/B3/E4/C,E2/B1/E1/A1/D1,C/B6/E6/B5/E5,
1,2,3,4,
5h[4:3],3,4,6,
4h[4:3],6,5,3,
2-6[8:3],{2},{4}3q6>3[4:3]*q6>5>4>3[4:3],
{1},{4}7h[8:7],
5,6,8,
1h[8:7],7,8,2,
{8}5pp5[4:1]*qq5[4:1],{2},{8}3p6v3[8:7],{1},{4},1,
2,3,3-6[2:1]*<6[2:1],
{1}B7/B2,
{4}6,5,{8}4,3,2<7>2<7[4:3],1,
{1},8>4[2:1]*q4[2:1],
8>4[2:1]*q4[2:1],
{4}7/6h[4:7],5,7,5,
7,5,7,5,
{1}4v5-7v8[2:1],
7<2>7[2:1],
{4}7/6h[4:7],5,7,5,
7,5,7,5,
{1}8bq4[2:1]*>4[2:1],
8bq4[2:1]*>4[2:1],
{8}6bh[4:7],B7,B6,B7,B6,B7,B6,B7,
B6,B7,B6,B7,{2}B6,
{1}7-5v4-2[2:1],
1q6p2[2:1],
{8}6bh[4:7],B7,B6,B7,B6,B7,B6,B7,
{1}B6,
{8}4h[8:1],{4},{8}4h[4:1],{4},5,
4h[8:1],{8}4h[8:1],5,{2}6,
{8}8h[4:1],{4},{8}8h[4:1],,1h[8:1],{4}2h[4:1],
{8}3h[8:5],{2},{8}4h[8:1],,5,
6h[8:1],{4},{8}6h[8:1],{4}5,4h[4:1],
{8}5,3,,7,{2}4h[4:1],
{4}8/6h[8:3],{8}7,5,{4}7/5h[8:3],{8}6,4,
{1}4V68<5[2:1],
5>1q5[2:1]*>1q5[2:1],
5>1q5[2:1]*>1q5[2:1],
{8}5/6h[1:1],7,5,7,5,7,5,7,
{1}5h[4:3],
7<6v3>2[2:1],
7p3<7[2:1],
{8}5/6h[1:1],7,5,7,5,7,5,7,
{1}5h[4:3],
1b>5p1b[2:1],
1b>5p1b[2:1],
{8}7bh[1:1]/B6,B8,B6,B8,B6,B8,B6,B8,
{1}8bh[4:3],
5v3-6V42b[2:1],
1q6>4-2b[2:1],
{8}7bh[1:1]/B6,B8,B6,B8,B6,B8,B6,B8,
{1}8bh[1:1],
E
&inote_5=(125){4},,,,,,,,6-8[8:1],
6/5,6-8[8:1],6/5,
3-1[8:1],3/4,3-1[8:1],3/4,
6-8[8:1],6/4,5-7[8:1],5/4,
3-1[8:1],3/5,4-2[8:1],4/5,
6-8[8:1],{8}6/4,2h[8:3],1,8,{4}7,
5/3-1[8:1],{8}3/5,6,7h[4:1],8,{4}1,
3/6-4[8:1],{8}6/1,8h[8:3],3,4,{4}5,
4/7-5[8:1],{8}7/2,1h[8:3],4,5,{4}6,
7-4[8:1],3,1h[8:1],{8}2/4,5,
{4}6<2[8:3]*q2[8:3],{8},,,,3h[4:1],5,
{4}7-4[8:1],{8}7/2-5[8:1],1,2/7,8pp3[8:7],{4}8,
{8}3,4,5,6,7,6,{4}5,
1V35[4:1],5V71[4:1],1>5[4:1],{8}5>1[4:1],6,
{4}7-5[8:1],7,4h[4:1],2-7[8:1],
2/3,3-6[8:1],{2}C/6p3b[4:5],
{4}8h[8:1],1h[8:1],8h[8:1],1b,
7>2[8:1],2<7[8:1],7>2[8:1],{8}2,3h[8:1],
{4}1V74[4:1],1/6,5h[4:1],{8}3,2,
{4}1/5pp5[4:1]*qq5[4:1],5-1[8:1],{8},,8<4[4:3],8,
{4}4,{8}2,1,1,2,{4}3,
4/5<8[4:1],8v5[4:1],5<8[4:1],{8}8q5[4:1],8,
{4}2>7[32:19],2q7[32:11],,,8/6h[4:1],
{8}2-4[8:1],8-6[8:1],2-6[8:1],8-4[8:1],2<7[8:1],8,
{4}2-6[8:1],2>7[8:3],{2}2<7b[8:1],
{4}8>4p8[2:1]*>4p8[2:1],7,{8}6h[4:1],,,7,
{4}8>4p8[2:1]*>4p8[2:1],7,6h[8:1],7b,
{8}B3/B2,B6/B7,B3/B2,B6/B7,B3/B2,B6/B7,B3/B2,B6/B7,
{4}B2fh[4:3]/B3fh[4:3],1<5[1:1],,,{1}1<6<3[4:3],
7>2<5[4:3],
{8}B6/E6,E7/A6,B6/E6,E7/A6,B6/E6,E7/A6,B6/E6,E7/A6,
{4}E4h[4:3]/B4h[4:3]/B3h[4:3],{8}E7,E6,A5,A6,{4}A7,
1<5q1[2:1]*<5q1[2:1],2,{8}3h[4:1],,,2,
{4}1<5q1[2:1]*<5q1[2:1],2,3h[8:1],2b,
{8}B6/B7,B3/B2,B6/B7,B3/B2,B6/B7,B3/B2,B6/B7,B3/B2,
{4}B6fh[4:3]/B5fh[4:3],8>4[1:1],,,{1}8p3<1[4:3],
2q7<1[4:3],
{4}6h[4:3],{8}B7/E7,B5/E6,B7/E7,B5/E6,{4}B7/E7,
8h[8:5],{8}3,2,1-6[8:1],2,{4}1b,
5-7[8:1],{8}3,2,{4}1-3[8:1],4/1-5[8:1],
1/7-4[8:1],{8}7/4,3,{4}2h[4:1],1<4[4:3],
{8}5h[8:1],,,5h[8:1],,3,{4}2<7[8:3],
{8}3,4,5,6,6,5/8h[8:1],4,3/2h[8:1],
{4}4-2[8:1],{8}4/6,7,{4}8-6[8:1],8/2h[4:1],
{8}4-8[8:1],5h[4:1],,,{4}7-4[8:1],7/8,
1-4[4:1],{8}8,6,{4}5-8[4:1],{8}4,2,
{4}1h[1:1],{8}B2,B3,B4,B5,{4}B6,
8b>4V28b[2:1],7,6h[8:1],{8}7,8,
{4}1b>5V31b[2:1],8,7h[8:1],5-3-6-2-7[2:1],
5x,{8}1-7-2-6-3[2:1],1,{4}1x,{8}8x>8>8[4:3],8x,
,,,,,,{4}2q7[8:1],
7p2[8:1],2<4[8:3],,8q5[8:1],
5p8[8:1],8>5[4:1],,1-5-3-7-1[2:1],
1,{8}6-2-4-8-6[2:1],6,{4}6,1>5[4:3],
{8},5,6,7,8,7,{4}6,
5/4b<8V64b[2:1],3,2h[8:1],3,
4/5b<1V75b[2:1],4,3h[8:1],1-7-2-6-3[2:1],
1x,{8}5-3-6-2-7[2:1],5,{4}5x,{8}4x<4<4[4:3],4x,
,,,,,,{4}6q3[8:1],
3p6[8:1],6>8[8:3],,4q1[8:1],
1p4[8:1],4<1[4:1],,5-1-7-3-5[2:1],
5,{8}2-6-4-8-2[2:1],2,{4}2,7<3[8:7],
{8},3,2,1,8,7,6,5,
E8/A2h[8:11]/D3h[8:11]/A3h[8:11],B6,E8,B6,E8,B6,E8,B6,
E8,B6,E8,B6,
E
E
