&title=絶え間なく藍色【SD】
&artist=獅子志司
&first=0
&des=aoihoshi
&lv_5=12
&inote_5=(125)
{1},
{16}
3-1[8:1],,4,,3/5,,6,,7,,6,5,6,,4/7,,
8-2[8:1],,8,,3-7[8:1],,3,,5^8[8:1],,,,5/1,,,,
2^7[8:1],,,,2/4,,,,5/6,,3,4,3,,1/2,,
8-4[8:1],,,,4,,,,1-5[8:1],,5,,5,,,,
6-8[8:1],,5,,6/4,,3,,1/5,,3,4,2,,1h[4:1],,
,,8,,2/7,,,,6-1[8:1]/3,,5,5,,,3,,
8-4[8:1],,,5,,,3,,1-5[8:1],,,4,,,6h[4:1],,
,,5-1[8:1],,6<4[2:1],,5,,6b,,,,,,,,
1h[4:1],,,,2pp6[2:1],,,,,,6,,,7,,,
8h[4:1],,,,7s3[2:1],,,,,,3,,,2,,,
1h[4:1],,,,3pp7[2:1],,,,,,6,,,6,,,
5h[16:3],,,4h[16:3],,,3,,2^7[8:1],,,,2/7,,,,
6,5,6,5,7^2[32:3],7,,4-1[32:3]/7,,,4,,,,2/7,,
3,4,3,4,2^5[32:3],2,,2/1,,,8,,7,,6V42[4:1],,
,,2V86[4:1],,,,6V48[4:1],,,,4,,3,,2h[4:1],,
,,1-5[8:1],,4-8[8:1],,1,,4,,,,2b/7b,,,,
3h[4:1],,,,4h[4:1],,,,6h[4:1],,,,5,,5^7[4:1],,
,,4,,4,,3,,2h[4:1],,,,4,,4^7[4:1],,
,,3,,3,,2,,1h[4:1],,,,3,,3<7[4:1],,
,,2,,,,1,,1/8,,2/7,,3-5[8:1]/6,,,,
3/8,,8,,5-1[8:1]/7,,7,,5/6,,6,,2/5,,3,4,
3,,1/6,,2/7,,3/8,,6,5,6,,1/6,,3,4,
3,,2/5,,3/6,,4/7,,2,1,3,,4/8,,7,8,
6,,1/5,,2/6,,3/7,,4-8[8:1]/8,,,,4/8w4[8:1],,,,
8b>7[8:5],,,,,,,,,,,,,,1h[4:1],,
,,5,,2/6,,3/7,,4w8[8:1]/8,,,,,,,,
2-6[8:1],,3/5,,2/6V41[16:3],,7,7,,,8-4[8:1],,7,,6/8,,
7-3[8:1],,6/4,,7/3V58[16:3],,2,2,,,1^6[8:1],,2,,3/1,,
,,3-7[8:1],,1/4,,3/7,,,,6-2[8:1],,8/5,,6/2,,
,,3^8[8:1],,7^5[8:1],,3,,7qq8[16:3],,,,4,,,,
1-5[8:1],,2/4,,1/5V38[16:3],,7,7,,,6,,5,,4,,
8-4[8:1],,5/7,,4V62[16:3]/8,,1,1,,,4,,5,,3/6,,
,,3-8[8:1]/4,,2/5,,3/4,,,,5/6-1[8:1],,4/7,,5/6>1[4:1],,
,,8,,7,,6,,5w1[8:1],,,,5,,,,
3h[4:1],,,,4-6[8:1],,,,2,,2-4[8:1],,,,7h[4:1],,
,,5,,5-3[8:1],,,,7-5[8:1],,7,,3,,3,,
2h[4:1],,,,4-6[8:1],,,,2,,1-5[8:1],,,,7h[4:1],,
,,5,,5-3[8:1],,7,,6h[256:1],,5h[256:1],,4h[256:1],,3h[256:1],,
1h[4:1],,,,4-7[8:1],,,,2,,2-5[8:1],,,,7h[4:1],,
,,6,,5,,4,,3-1[8:1],,7-5[8:1],,3qq7[8:3],,7,,
3,,,,,,6h[8:3],,,,,,5qq1[4:3],,,,
,,,,,,,,,,,,,,8h[8:9],,
,,,,,,,,,,,,,,,,
2-5[1:1],,,,,,,,,,,,,,,,
7-4[1:1],,,,,,,,,,,,,,,,
3-8[1:1],,,,,,,,,,,,,,,,
6-1[4:3],,,,,,,,,,,,,,,,
3h[2:1],,,,4,,,,6h[2:1],,,,5,,,,
2h[2:1],,,,4,,,,7h[2:1],,,,5,,,,
1h[2:1],,,,4,,,,8h[4:1],,,,5,,4,5,
3,4,4,2,3,3,1,,1-5[8:1],,,,8,,,,
7-3[8:1],,3-6[8:1]/6,,4/7b,,2,2,1-5[8:1],,2/5-2[8:1],,1/6,,7,,
8-4[8:1],,7/4-7[8:1],,8/2,,3,3,2-6[8:1],,6-3[8:1]/3,,5/2,,8b,,
,,7>5[16:3],,8,,7b/1,,,,8>6[16:3],,1,,8b/2,,
,,1>7[16:3],,2,,1b/3,,,,2,,1,8,1,8,
2v7[8:1],,3/7v4[8:1],,2/6,,5,5,6v1[8:1],,1v4[8:1]/5,,2/6,,3,,
3v6[8:1],,2/6v1[8:1],,3/7,,8,8,7,,5-1[8:1],,4,,5/3h[4:1],,
,,8,,2/7,,1/6h[4:1],,,,4>6[8:3],,3/5,,2/4,,
,,4,,3,,2,,7,4,6,5,8,3,6,5,
7-1[8:1],,6,,5/7,,4,,3-5[8:1],,2,,1/3,,8,,
7^1[8:1],,6,,5/7,,4,,3^5[8:1],,2,,1/3,,8,,
7,,1,,1h[8:1],,4,4h[8:1],,5,5h[8:1],,8,8h[8:1],,1,
1h[8:1],,{32}5,6,7,8,1,2,3,4,5,6,7,8,{24}2,1,2,1,2,1,2,1,2,1,2,1,
{16}
2^7[8:1],,3,,2/4,,5,,6^3[8:1],,7,,6/8,,1,,
2-7[8:1],,3,,2/4,,5,,6-3[8:1],,7,,6/8qq1[8:3],,1,,
2h[2:1],,,,,,,,,,5/6,,4h[4:1]/7,,,,
8^6[8:1],,4^1[8:1],,8qq4[8:3],,4,,8,,,,1,,1,,
2-5[8:1],,,,8,,8h[4:1],,,,3-8[8:1],,3,,4h[4:1],,
,,1-5[8:1],,1,,8h[4:1],,,,6-2[8:1],,6,,7h[4:1],,
,,8-4[8:1],,1,,2h[4:1],,,,5-1[8:1],,6,,7,,
,,5p4[2:1],,4,,4,,
