&title=モニタリング (Best Friend Remix)
&artist=DECO*27
&first=0.22
&des=RiveR
&des_5=RiveR
&lv_5=13
&inote_5=(132){4},,,,,,,,,,7<4[16:3],
7/3,
2>5[16:3],2/8qq8[4:1],2-5[8:1],2,
{16}4>2[8:1]/5<7[8:1],,,,,,,,,E7,{8}E3,{16}E8,E2,,,{4}1/8<4[16:3],
8,1>5[16:3],1,
,8-4[8:1],8/4<8[4:1],8>4[4:1],
,2-6[8:1],{2}6<1[8:1]/2>5[8:1],
{4},3,{16},B6,{8}B3,{16}B5,B4,,6,
4,6,4,6,,2,,5,5h[16:1],,,3,{8}3h[8:1],{16}7-5v4-2[4:1],7,
,,,,,,,,{8}6,{16}3,4,{4}2pp6[4:3],
{16}8/2,,,6,,,{8}8-4[8:1],,8,,,{4}3-1[8:1]/6-8[8:1],
3/6,{16},,6,5,{4}7<6qq5[2:1],
{16}7/3,,,2,,,{8}1-4[8:1],,1/8-5[4:1]*>5[4:1],{16},,,,,,,,3>8[8:1],
4,{8}2,{4}3/7V53[4:1],{8}7,{16}1,1,
,2,4qq4[4:1],3,5,4,{8}6,,,6,{16}3,4,
,,{8}3,{16}3,4,{8}3,{16},2,{8}1,{16}2>6[4:1],1,,8,
{8}8,{16}7,7,,5,7,4,6,4,5,4,{8}5,{16}2,2,
,8,1,8,{4}1-3[8:1],1-7[8:1],1-5[8:1],
1,{8}B6,B3,{4}5-7[8:1],5-3[8:1],
5-1[8:1],5pp7[8:1]*qq3[8:1],{2}A5,
{16}4/6,,,8/2,,,{8}6/3,{24},,,,,,,,,,,,1x,
2x,3x,4x,5x,6x,7x,8x,1x,2x,3x,4x,{8}5x/7bV53[8:1],{16}1,1,{8}7,{16}2,2,
{4}8-6[8:1]*-5[8:1],8-2[8:1]*-3[8:1],8-4[8:1],{8}8,{16}3,3,
{8}4,{16}3,4,,6,{8}6,{4}7/C,C/2pp2[4:1]*qq2[4:1],
,,8-4[8:1],{8}8,2,
2,6h[16:1],{16},4h[16:1],,,7,,,3,4,3,4,3>7[4:1],
,,,7x,6x,5x,4x,3xh[8:1],,,{8}7/3,{4}8>3[8:1]/4<6[8:1],
,8/1-3[8:1],1/8-6[8:1],{8}8/1,{16}2x,3x-8[8:1],
{2}4x,{8}A7/D7/A6/E7/B6/B7,A2/D3/A3/E3/B2/B3,E8/B7/B6/E6/E7,{16}E2/B2/B3/E4/E3,C,
{48},,,,,,{24}8x,1x,8x,1x-5[8:1],8x,1x,8x,1x,8x,{48},,,,,,{16}6,5x,{8}7,{16}3<8[4:1],4,
{8}2,3x/8x>4[4:1],,4-8[8:1],,,,2q7[4:1],
,,,,{4}1/7-4[8:1],7/1-5[8:1],
{8}1/8,7-4[8:1],,8-3[8:1],,7,,3/6,
2/7,{16}4,5,,4,{8}8V64[16:5],{16},,,4x,3x,2x,1x,8xV24[4:1],
,,,4x,5x,6x,7x,8x,,,{8}C,7<3[16:3],{16}1,1,
,,,,{4}5-7[8:1]*-2[8:1],{16}5,,,8,{8}1,{16}2x,3x,
4h[16:3],,,8,,,,,{8}A7,A2,B7,{16}B2,C,
,,,,{4}5-7[8:1],5-3[8:1],5-8[8:1],
5-2[8:1],7-4[8:1],2-5[8:1],6-1[8:1],
6/3-6[8:1],3/8-4[8:1],8/2-5[8:1],2/7-3[8:1],
7/8-4[8:1],8/6-3[8:1],{8}6/8>4[8:5],,,4,
5,6,7,8,{4}8-6[8:1],8-2[8:1],
8-5[8:1],8-3[8:1],6-1[8:1],3-8[8:1],
7-4[8:1],7/2-7[8:1],2/5-1[8:1],5/3-8[8:1],
3/6-2[8:1],6/5-1[8:1],5/7-2[8:1],7/5-2[8:1],
{2}5,4/5,
{16}4/3,,,4/3,,,{8}6/1-4[8:17],,,{4}5,
5,6,6,7,
7,8,8,8,
4/8-5[4:11],4,4,4,
3,3,3,2,
2,2,1,1,
1,5<8[4:1]/1>4[4:1],{24},,,,,,,,,,,,,,,2x/8x,
3x,4x,5x,6x,7x,8x,1x,2x,{48}3x/8xh,B8,C,B4,{24}A4,3x,{48},{16}4x,{8}2xV47[4:1],{16}8,8,
{8}2,8x<4[4:1],,4-8[8:1],,8,{16},,3,3,
{8}5,{16}5,3,,3,{8}5,{32}1x,2x,{16}3x-8[8:1],{32},,,,8x,7x,{16}6xh[16:3],,,3-6[8:1],
,,7,{8}3,8-5[8:1],,8,{16},,3,4,
{8}2,{16}8,1,,8,{8}1,{2}8-4[16:3]/2-6[16:3],
{8}5x-8[16:3]/3x-7[16:3],,,,,5/4,7/2,{16}1,8,
,,,,{8}2,3,{4}4>8[4:1],{8}7,6,
{2}5-1[8:1],{8}A7,A2,B6,{16}B3,Ch[16:5],
,,,,,,,,{4}1-6[8:1],1-4[8:1],
{1}5pp7[1:1]*qq3[1:1],
{16},,,,,,4,5,{4}4>8[4:1],8<4[4:1],
4>8[4:1],8-4[4:1],{16},,7x,6x,{8}5x-7[8:1],5-3[8:1],
5-1[8:1],5,5,{16}2x,3x,{4}4x/8-6[8:1],8/1-3[8:1],
{8}1/8h[8:3],,,3h[2:1],{16}8b,,,7b,,,{8}6b,
,7-4[8:1],,7,{16}1,,,2,,,{8}3,
{16}8,,,7,,,{8}6,{12}4/5,5/4,{6}4/5,{12}3/6,3/6,
{4}3/6,8b/1b,{12}8/1,8/1,{6}1/8,{12}2/7,2/7,
{4}2/7,5b/4b>5[2:9],{1},,,,,{2}2<8[8:1],
3<5[8:1],{4}2q6[4:5],8h[4:5],
{8},,,,,,,,,,,,7b/E6,
2b/E4,7b/E6,{16}2b/E4,8b/1b,
{48},,,,,,{24}1,2,3,4,5,6,7,8,1,{8}2/Cf,{16}3<7[4:1],4,{8}2,{16}3,8x,
{4}8x-5[8:1],8-3[8:1],{2}7p2[8:1],
{4}4-1[8:1]/5-8[8:1],4/5-7[8:1],5/4-2[8:1],4/5-1[8:1],
1w5[8:1],1,{8}3b/6b,{16},,,,8x/1,7x,
{8}6x,{16}4,5,,4,{8}5<1[16:5],{16},,,1,2,3,4,5>1[4:1],
,,,1,8,7,6,5,,,1,5,2,6,3,7-4[8:1],
,,,7,{4}2-5[8:1],2/8-4[8:1],{8}8,{16}1x,2x,
3xh[16:3],,,7,,,{8}C,7x/E6,2x/E4,7x/E6,{16}2x/E4,5x/4x,
{24}1x,2,3,4,5,6,7,8,1,2,3,4,{4}5-1[8:1],{8}5,{16}8x,2x,
,8,1pp1[4:1],8,1,8,{8}1,,,8/1,{16}4,5,
,,{8}3,{16}7<3[8:3],8,{8}7,{16},1,{8}1,{16}2,2,,1,
{8}8,{16}4,5,,4,5,4,5,4,5<1[2:1],4,{8}5,1,
2,3,4-8[8:1],5,4,{16}7,7,,1,,7,
,4,{8}5,8/1-5[8:1],1/8,1,{16}6,6,,4,6,4,
,8,2,8,{8}2-6[8:1],7,{4}2,{8}3,{16}7-4[4:1],8,
{8}7,{16}1,1,,2,{8}2,4/6,2/8,6/3,{16}5/4,5/4qq4s8[4:5]*pp4s8[4:5],
E
