&title=だいしきゅーだいしゅき
&artist=femme fatale covered by しぐれうい&天宮こころ
&first=0.106
&lv_5=14
&des_5=伊拉莎玛
&inote_5=
(190){4},,,,{32}2,
3,{16}4h[16:3],{8},{32}7,8,{16}1h[16:3],{8},{32}5,4,{16}3h[16:3],{8},{32}8,7,{16}6,{8},1/5,
1/5,2/6,2/6,{16}3,7,3,7,4,8,4,8,
{8}2b-6[8:1],7,2,5,{16}8,1,2,3,{8}6/4,6/4,
8>8[2:1],2>4[8:1],4<6[8:1],6<8[8:1],,{16}1,2,{8}3,3,
7-3[8:1],2,7,4,{16}1,8,7,6,{8}5/1,5/1,
2<2[2:1],8<6[8:1],6>4[8:1],4>2[8:1],,{16}8,7,{8}6,6,
1-5[8:1],5-7[8:1],1,6,{16}8,1,2,3,{8}4/5,5/4,
7,7-3[8:1],2,2-6[8:1],,{16}1,8,7,7,{8},3,
4h[4:1],,6,{4}5h[4:1],{8}3,4h[4:1],
,6,{4}1h[4:1],{16}8,1,{8}8,{4}2/7,
{8}5b/4bh[8:9],{4},,,{8}8-4[8:1],
,8,{4},,,{8}4-1[8:1]/5-8[8:1],
{4},,,{8}1v6[8:1],
,8V64[4:1]*V24[4:1],{4},,,{8}6-3[8:1]/4-1[8:1],
{4},,,{8}3-8[8:1]/8-5[8:1],
,3/8,{4},,,{8}8,
1h[4:1],,7,{4}8h[4:1],{8}2,1h[1:1],
,E8,E1,E2,E3,E4,E5,E6,
{4}7b/2bh[4:1],8h[4:1],3h[4:1],{8}6,3h[4:1],
,8-4[8:1],8,1,2-6[8:1],2,,7,
8,1,2,3h[2:1],5,6,7,8,
{16}1h[8:1]/2h[8:1],{8},{16}3h[8:1]/8h[8:1],{8},7/4h[8:3],{4},8-5[8:1],
4-1[8:1],{8}6,6-3[8:1],,2-7[8:1],,8h[8:3],
,6,{4}6-3[8:1],2-7[8:1],1h[4:1],
{8}8h[8:3],2,,1h[8:3],{4}7,{8}8h[8:3],2,
,1h[8:1],{4}7,E8/B8/B1/E2/A7/A2/A1/A8/B7/E6/B5/B4/B6/B2/C/E4,E6/E7/E8/E1/C/E4/E2/E3/B5,
{2}1b>8[2:3],C,
,C,
1/8<1[2:3],C,
,C,
{8}8/1h[8:17],{4},{8}8,{4}8,{8}7,7,
,6,{4}6-3[8:1],{2}6,
{8},5xpp5[8:3],{4},{2}5xqq5[8:3],
{4}1x,2x,{8}3x/8w4[8:1],2x,{4}8b,
{8}5x/3x,6h[2:3],5,5,4,4,3,3,
2,2,1,1,8,8,{4}8/5-8[8:1],
{8},4h[8:13],7,7,6,6,5,5,
3,3,2,2,1,1,{4}1w5[8:1],
1b,{8}7-3[8:1],3V57[16:3],,1-5[8:1],,1,
,2,1,8,{4}2/7,{8}8,4,
6b/2b,2b-5[8:1]/6b-1[8:1],,2b/6b,,3b/7b,,5/1,
{4}7b-4[8:1]/3b-8[8:1],3b/7b,{2}6b>3[8:1]/2b<7[8:1],
{8}1x/7x,2h[1:2],1,1,8,8,7,7,
6,6,5,5,{4}4-8[8:1],4,
{8},7h[2:3],1,1,8,8,6,6,
5,5,4,4,3,3,{4}3-6[8:1]/7-2[8:1],
3b/7b,{8}8/1,1b-5[8:1]/8b-4[8:1],,1>4[8:1]/8<5[8:1],,1b/8b,
,3,6,2b,{4}7,{8}1,1,
8,8-4[8:1],,1b/8b,,2b-5[8:1]/6b-1[8:1],,2b/6b,
,8,{4}8,{16}8/4,7/3,6/2,5/1,8,7,6,5,
{2}4b/8bh[2:3],C,
,C,
1h[2:3],C,
,C,
8h[2:3],{8}4,4,3,3-6[8:1],
,3,{4},{2}2,
1h[16:25],{8}5,5,6,6-3[8:1],
,6,{4},8h[8:1],{32}1,2,3,4,5,6,7,8,
{4}1b/B5/B4/Cf,2x,3x,{8}5/4,5/4-1[8:1],
,7-3[8:1],7,8,1-5[8:1],1,,6,
7,8,1,2h[2:1],5,5,6,6,
{16}1h[8:1]/7h[8:1],{8},{16}2h[8:1]/6h[8:1],{8},3/5h[8:3],{4},1-4[8:1],
5-8[8:1],{8}3,3-6[8:1],,7-2[8:1],,1h[8:3],
,3,3-6[8:1],7,{4}7-2[8:1],8h[4:1],
{8}1h[8:3],4,,8h[8:3],{4}5,{8}1h[8:3],4,
,8h[8:1],{4}5s1[16:3],,{48}A1,B1,C,B5,{6}A5,
{2}4b/8b<1[2:3],C,
,C,
8/1>8[2:3],C,
,C,
{8}1/8h[2:3],{4},{8}1,{4}1,{8}2,2,
,3,{4}3-6[8:1],{2}3,
{8},8/1,2/7,3/6,{4}1/8h[1:1],{8}2,2,
{4}1x,2x,3x,B2/B3/B7/B6/E2/E8/E6/E4/Cf,
{8},1x/5x,2-7[8:1],2,3-6[8:1],3,4-1[8:1],4,
5-8[8:1],5,6-3[8:1],6,{4}7-2[8:1],1-5[8:1],
{8},8,2-5[8:1],2,3-8[8:1],3,4-7[8:1],4,
5-2[8:1],5,6-1[8:1],6,7-4[8:1],7,{4}8,
1b/5b,{8}3/7-3[8:1],7/3V57[16:3],,1-5[8:1],,1,
,7,8,1,{4}2/7,{8}1,5,
3x/7x,{64}7x-4[8:1],3x-8[8:1],{32},,,,,,,{8}7x/3x,,6x/2x,,4/8,
{64}6x-1[8:1],2x-5[8:1],{32},,,,,,,{4}6x/2x,{64}7x<4[8:1],3x>8[8:1],{32},,,,,,,,,,,,,,,{8}E5f,
8,7/1,7/1,6/2,6/2,5/3,5/3,
6/4,6/4,7/3,7/3,{2}8p1[8:1]/2-4[8:1],
{8},3,2/4,2/4,3/5,3/5,2/8,4/6,
1/7,3/5,8/4,2/5,7/4,1/6,{4}3-8[8:1]/7-4[8:1],
3b/7b,{8}1/5,1b/5b,,7-3[8:1]/8-4[8:1],,8b/7b,
,2,1,8b,{4}7/2,{8}8/4,2/6,
3/7,7-4[8:1]/3-8[8:1],,3<6[8:1]/7>2[8:1],,3/7,,7/3,
{4},8<1[4:1],8-4[8:1],8,
{8}1b/7b,7/1,2/6,2/6,{16}3,4,{8}2,5/1,1/5,
6/2-6[8:1],1,8<5[8:1],7,{16}8/4,3,2,1,{4}8,
{8}7/3,{16}7,6,{8}5/1,2,3/7-4[8:1],8,1-5[8:1],2,
1,8,7,6,1/5,2/6,3/7,4/8,
2b/6b,{16}2,3,{8}4/8,{16}7b,6,{8}5/1-5[8:1],2,8-4[8:1],7b,
2-5[8:1],1,7-4[8:1],8b,3,2,{4}1/5,
{16}8,1,2,3,{8}4,4,{16}1,8,7,6,{8}5,5,
{16}2,6,2,6,2,6,2,6,{8}1b,2b/8b,{4}3b/7b,
{16}1b,2,3,4,1,2,3,4,1,2,3,4,5,6,7,8,
1,2,3,4,1,2,3,4,1,2,3,4,{8}8,8,
{16}8,7,6,5,{8}4,{16}8,1,2,3,4,5,{8}6,{16}8,7,
4,5,{8}4,{16}3,6,{8}3,{16}2,7,{8}2,{16}1,8,{8}1,
7b/3b,{16}7,6,{8}5/1,{16}2b,3,{8}4/8-4[8:1],8,1-5[8:1],1b,
6,7,8,1b,2/6,3/7,{4}4/8,
{16}6,5,6,5,{8}7,7,{16}3,4,3,4,{8}2,2,
7b/1b,7b/1b,{16}8b-4b[8:1],8b,8b,8b,{2}8b,
{1}2xpp6[1:1],
6pp1[1:1],
{2}1<5[2:1],5>1pp6[4:5],
,E8,
{1}8qq3[1:1]*qq3[1:1],
3qq8[1:1]*qq8[1:1],
{2}8>4[2:1]*>4[2:1],4<8qq4[4:5]*<8qq4[4:5],
,{4}E2,2x,
{2}2xh[1:2],{4}5,5,
,6,,7,
{2}7h[1:2],{4}2,2,
,3,,4,
4w8[4:1],{2},{4}5,
5w1[4:1],{2},{4}8-5[8:1],
{1}8w4[1:1],
{2},{4}1-4[8:1],1,
{1}5/7h[1:2],
,1-4[2:3],
,{4}6/5h[8:7],
{8}7,7,,8,,7,
,6,5,7,{4}8,{8}8,8h[8:9],
7,7,,6,,5,,5,
{4}5,8/5,{2}7-2[8:1]/6-3[8:1],
{8},1pp4[8:9],{4},,,,,,,{1}4p1[4:5],
,{4}1/4h[8:7],
{8}1,1,,2,,3,
,3,4,2,{4}1,{8}2/8,3/7,
2b/6b,6b-1[8:1]/2b-5[8:1],,2b/6b,,3b-8[8:1]/7b-4[8:1],,3b/7b,
{4},{16}4,6,4,6,3,7,3,7,2,8,2,8,
{8}1,1>8[4:1],,1-5[8:1],,1,,,,6,
E1f/7b-4[8:1],7,8-3[8:1],8,7-4[8:1],7,
1-4[8:1],1,8-5[8:1],8,2-5[8:1],2,{4}1-6[8:1],
{8},2,2-5[8:1],2,8-5[8:1],8,1-4[8:1],1,
7-4[8:1],7,8-3[8:1],8,6-3[8:1],6,{4}1-5[8:1],
1b,{8}3/7,3b-6[8:1]/7b-2[8:1],,3/7,,8b/1b,
,2,7,3b,{4}6,{8}4/5-1[8:1],5/4-8[8:1],
5b,4b,,1bw5[8:1],,1b,,3b/7b,
{4}2b-7[8:1]/6b-3[8:1],2b>5[8:1]/6b<1[8:1],2b/6b,3b/7b,
{8}E7f,3,3-8[8:1],3,5-1[8:1],5,2-6[8:1],2,
7-4[8:1],7,3-6[8:1],3,{4}8w4[8:1],8,
{8},6,6-1[8:1],6,2-5[8:1],2,7-3[8:1],7,
4>1[8:1],4,8<5[8:1],8,2-6[8:1],2,{4}4w8[8:1],
4b,{8}2/6,2b/6b,,1v4[8:1]/7v4[8:1],,1b/7b,
,2-7[8:1],6-3[8:1],2b,{4}6,{8}1,1,
1-3[8:1],1-4[8:1],,1b-7[8:1]*-6[8:1],,1bw5b[8:1],,1,
,7/3,{4}7/3h[2:1],8-4[8:1],8,
{8}5b/1b-5[8:1],1,6,6,{16}7,4,7,4,{8}7,3/8,
2>5[8:1],2,6<1[8:1],6,,{32}2x,3x,4x,5x,{8}6x/1x,6x/1x,
4/8-4[8:1],8,3,3,{16}2,5,2,5,{8}2,6/1,
7<4[8:1],7,3>8[8:1],3,,{32}7x,6x,5x,4x,{8}3x/8x,3x/8x,
2-6[8:1],2,7,7,{16}8,4,8,4,{8}8,3/7,
6/4,8,3/5,1-5[8:1],,{16}8,7,{8}6,6,
3,5h[4:1],,6,{4}4h[4:1],{8}3,5h[4:1],
,6,{4}1h[4:1],{16}8,1,{8}8,{4}2/7,
{8}4b/5b,3/6,2/7,1/8,{32}8b/1,2,3,4,8b/5,6,7,8,8b/1-5[8:1],2,3,4,8b/5,6,7,8,
{1}1/B8/B2/B6/B4/Cfh[8:0],
E
