&title=Rain of Conflict in a Radiant Abyss
&artist=ak+q
&first=0.014
&des=sherria
&lv_5=14
&inote_5=(195)
{4},,,,,,,,1>6[1:1],,,,6<6[16:20],,,,,,7,,8,,1>6[1:1],,6,7,8,1,2z6-2[3:4]*<2[16:28],,,,,,,,,5h[2:1],4,3,2b>6[1:1]/A6,,A7,,A8,,A1,C,
{6}45,3,21,8,17,5,
{16}4h[4:1]/3,,,,1-5[8:1],,,,1,,,,8,,8,7,6h[16:16],,,,1,,,,2,,,,3,,,,4h[1:1],,,,1,,,,8,,,,7,,,,6h[8:1],,5,,5,,5,,3h[8:1],,4,,4/E3,E2,4/E1,E8,E7/4-8[8:1],
{32},,,,,,,,,A1,A2,A3,A4,A5,,,,{24}E1,E8,E7,E6,E5,,,,,{32},
{8}3<7[2:1]*>7[2:1],,,,,,,,5<1[4:1]/1,,2,3,4,5,4,3,2>6[4:1],,62,,8,8,8h[4:1],,1>5[4:1],,5,6,7,8,7,6,5<1[4:1],,15,,3h[2:1],
{16},,1,8,7,6,5>1[4:1],,,,5,,,,8,,7,,6,,5,,4/8-2-4[4:1],,,,4-6-8[4:1],,,,8,,,,4-2-8[4:1],,,,8-6-4[4:1],,,,4-2-8[4:1],,,,8,,,,4>8[4:1],,,,48,7,6,5,4,3,2,1,8h[2:1],,,,Cf,,,,4>1[8:1],,5,,6,,7,,8<5[8:1],,1,,2,,3,,4<7[8:1],,3,,2,,1,,8>3[8:1],,7,,6,,5,,4-8[8:1],,8,,1,,2,,3-7[8:1],,7,,6,,5,,4<7[8:1],,3,,2,,1,,8>3[8:1],,7,,6,,5,,4h[16:10],,1,,1,,2,,2,,3,,3,,4,,4h[2:1],,7,,7,,6,,6,,5,,5,,42,,1,,86,,5,,43,,2,,18,,7,,53,,1h[4:1],,,,
{24}A8,A7,A6,A5,A4,A3,
{16}A2/8h[8:1],,,,1h[8:1],,,,C,,,,2-4-6[2:1],,,,4,,,,6-8-4[2:1],,,,8-2-4-6-8[1:1]*-4[4:1],,,,,,,,,,,,6z2z6[1:1],,,,,,,,,,,,,,,,,,,,
{12}1,1,2h,8,8,7h,5,3h,1,5h,3,7h[12:1],
{8},,,
{16}1,2,3h[16:6],,4,,5,,6,,7-1[4:1],,,,1-3-5[2:1],,,,5x,,,,1xz5s1b[1:1],,,,1x,,,,,,,,,,,,,,,,A1f/5h[2:1],,,,,,,,,,,,5,,,,3-6[4:1],,,,6-4-2[16:6],,6,,7,,7,,8-4[4:1],,8,,4-6-2[2:1],,,,3h[8:1],,,,3-7[12:1],,3,,,,,,6-4-2[8:1]/5-3-1[8:1],,2-8-6[8:1]/1-7-5[8:1],,A5f/A6f,,,,,,,,5h[2:1]/1,,2,,3,,4,,4h[2:1],,8,,7,,6,,5h[4:1],,1-5[8:1],,,,1,,6-2[8:1],,6,,3-5[8:1],,3,,1-7[8:1],,1,,2-4[8:1],,2,,2/6-2[8:1],,6,,6/5-1[8:1],,5,,51,,8,,7,,6,,1,,2,,7,,6,,2,,3,,4hb[2:1]/5hb[2:1],,,,,,,,,,,,4-8[16:1]/5-1[16:1],,,,4b/5b,,,,,,,,
{32}7hb[8:1]/1,2,3,4,,,,,1/6hb[8:1],2,3,4,5,,,,8-4[8:1],,,,,,,,
{8},,,,5h[4:1],,1h[4:1],,,,
{32}3bh[8:1]/8,7,6,5,,,,,8/3bh[8:1],7,6,5,4,,,,1-5[8:1],,,,
{32},,,,,,,,,,,,
{24}E1,B8,B7,E7,,,E3,B3,B4,E5,,,
{8}1>5<1b[1:1],,,,,,1,,5<1>5[1:1]*<1>5[1:1],,,,,,5,,1>5<1[3:4],,,,,,,,A2,A3,A4,A5,A6,A7,A8,,
{16}2>4-8<6-2[16:24],,,,,,,,,,,,,,,,,,,,,,,,2<2[16:24]*-4-6-8-2[1:1],,,
{8},,,,,,,,,,{16},2<8-6>4-2-8<6-4>2[16:40],
{8},,,,,,,,,,,{16},6p4[16:24]*p4[16:24],,,,,,,,,,,,,,,,,,,,,,,,4>5[16:24],,,,2,,,,1,,,,,,,,,,,,,,,,5p4b[1:1]*>1<5[16:24],,,,,,,,,,,,,,,,,,,,,,,,5-1<7-3[16:24],,,,4,,,,3,,,,2,,,,3,,,,4,,,,5-1[8:1],,,,,,,,5w1[16:1],,,,,,,,
{32}A8,A7,A6,A5,A4,,,,{24}E1,E2,E3,E4,E5,,
{8}6b-1[16:1],5,4,3,6-2[16:1],5,4,3,3b-8[16:1],4,5,6,3-7[16:1],4,5,6,7x/8x-4[16:1],1,8/6-2[16:1],7,5-1[16:1]/6,4,8-3[16:1]/5,7,8x/1x-5[16:1],2,1/6-2[16:1],7,6/3-1[16:1],4,3/5h[8:1],,8-4[16:1],6-4[16:1],8,6,1-5[16:1],3-5[16:1],1,3,8-6[16:1],1-3[16:1],8-4[16:1],1-5[16:1],8-6[16:1],1-3[16:1],8,1,5-1[16:1],5,8-4[16:1],8,7-2[16:1],7,6-3[16:1],6,8,8,56,1,34,87,56,12,Cf,
{16},,1,2,3,4,6,5,6,3,4,3,8,7,6,5,2,1,2,7,8,7,1,2,8,7,2,3,7,6,4,3,2,1,5,4,3,2,6,5,4,3,7,6,5,4,8,8,6,5,7,4,6,3,5,1,2,8,3,7,5,8,Cf,,,,1,,1,,8,7,6,5,8,7,6,5,8,7,1,2,7,6,2,3,6,5,3,4,6,5,2,3,Cf,,,,4,3,2,1,7,7,7,3,3,3,5,5,5,2x,1x,2x,1x,2x,1x,
{24}2bx,1xb,2xb,1bx,2bx,1bx,2bx,1bx,{32}2bx,1bx,2bx,,,,,1bx/Cf,,,{72},,,,,,,,,,,,
{32}E1,E2,E3,E4,E5,E6,E7,E8,E1,E2,E3,E4,E5,E6,E7,E8,A1/D2,A2/D3,A3/D4,A4/D5,A5/D6,A6/D7,A7/D8,A8/D1,A1/D2,A2/D3,A3/D4,A4/D5,A5/D6,A6/D7,A7/D8,A8/D1,1x,2x,3x,4x,5x,6x,7x,8x,1xb-5b[16:1],,,,,,,,1w5b[16:1],,,,,,,,1b,,,,,,,,1x,,,,
{16}1x,3,2,4,5,6,5,6,5,7,8,5,4,7,1,8,2,4,3hb[2:1],,2b,,1b,,8b,,7b>4[2:1],,,,,,,,,,,,8,,1,,2>7[2:1],,,,,,,,8h[4:1],,,,,,,,1h[4:1],,,,2h[4:1],,,,3h[2:1],,,,4-8>8[2:1],,,,4b,,,,,,,,4h[4:1],,,,Cf,,,,56,,
{8}4,3,18,7,6,42,1,8-2-4[8:1],7,5h[4:1]/8,,3-8[8:1],,3,,17,6,5,31,8h[2:1],7,6,5,4-8[16:1],,48,,7-4[8:1],8,1,2,3-5-1[8:1],,35,,2-5[8:1],1,8,7,6-4-8[8:1],,4h[4:1]/6,,1-5[8:1],,1/7,7,2>5[4:1],,25,6,7,8,1h[4:1],2,3,4,5/6-2[16:1],7,6/4-8[16:1],3,4/5-1[16:1],,
{16}1/5b-1[16:1],2,3,4,5b-1[16:1]/1,8,7,6,5b-1[16:1]/1,2,3,4,5b-1[16:1]/1,8,7,6,5b/1,,4,,56,,1b,,56,,2b,,45,,8b,,34,,7b,,56,,1b,,8bh[2:1],,2b,,4b,,6b,,1bh[2:1],,7b,,5b,,3b,,{24}8,7,6,5,4,3,7,6,5,4,3,2,
{16}1b-5[16:1],,,,1,,6,,3b,5x,4,6,1b,8x,5,7,4b,6x,3,5,8b,7x,1,6,2b,5x,3,4,1b,8x,5,6,2b,1x,5,6,2b,1x,3,8,4b,6x,3,5,2b,4x,8,
{32},,4bx,3bx,2bx,1bx,8bx,7bx,6bx,5bx,
{16}4hbx[2:1],,8b,7b,6b,,,,,,,,Cf/1-7-2-6-3-5[16:20],,,,,,,,,,,,,,,,,,,,,,,,,,1p1<5p5>1[16:48],,,,,,C,,,,,,,,,,,,,,,C,,,,,,,,,1<1<1[1:3]*<1<1[1:3],,,,,,,,,,,,,,,,,,,,,,,,,,,,,,,,,,,,,,,,C,,,,,,,,,,,,,,,,1<8q1[16:12]/5>4q5[16:12],
