&title=The illegaL QueeN
&artist=sasakure.UK
&first=0
&des=ネギラメン
&wholebpm=180
&lv_5=13+
&inote_5=(180)
{1},,
{16}
2/4,,2h[8:1]/4h[8:1],,,,7/5,,7h[8:1]/5h[8:1],,,,
2/4,,2h[8:1]/4h[8:1],,,,7/5,,7h[8:1]/5h[8:1],,,,
1/4,,1h[8:1]/4h[8:1],,,,7/5,,7h[8:1]/5h[8:1],,,,
2/4,,2h[8:1]/4h[8:1],,,,{24}6,5,4,3,2,1,8,7,6,
{16}5h[8:6],,,,,,3h[8:3],,,,,,,,4h[8:3]/6h[8:3],,,,,,,,3h[8:3]/5h[8:3],,,,,,,,
2h[8:3]/4h[8:3],,,,,,,,2h[8:3]/4h[8:3],,,,,,,,3h[8:3]/5h[8:3],,,,,,,,
5<8[8:1]/3,,,,5/4h[8:5],,,,,,8h[8:2],,,,,,2h[8:3]/6h[8:3],,,,,,,,3h[8:3]/5h[8:3],,
,,,,,,4h[8:3]/5h[8:3],,,,,,,,4-8[4:5]/6h[8:3],,,,,,,,5h[8:3],,,,,,,,4h[8:3],,,,,,,,
3<8[4:1],,,,,,,,,,5,,,7,5h[4:3],,6,,,,4,,,,6,,6,,,2,4h[4:3],,3,,,,5,,,,3,,3,,
6,5,7h[4:1],,,,5,4,6h[4:1],,,,4,5,{12}2,3,4,7,6,5,{16}2h[8:1],,4h[8:1],,5h[8:1],,7h[8:1],,1,,,3,4,,4/2,,,,1/8,,,,7<2[4:1]/5,,7h[8:4],,,,,,,,,,7/8>3[8:1],,,,5,,6,,
{16}7,6,5,4,2,3,4,5,7,6,5,4,2,3,5/4,6,7,8,5,6,7,8,5,6,7,8,1,2,3,4,5,,,
2,4,,3-1[8:1]/5,,,,3/5-7[8:1],,,,3/5,,4,,,7,5,,6-8[8:1]/4,,,,6/4-2[8:1],,,,6/4,,5,,,
2,8,,1>4[8:1]/7,,,,7<4[8:1]/1,,,,1/7,,8,,,1,5,,6h[16:3]/4h[16:3],,,,5h[16:3]/3h[16:3],,,,2/4,,2/4,,,3,5,4,6-2[8:1],,,,4h[8:3],,,,,,1,3,1,3,8,4,8,4,7,5,7,5,6,4,6,4,
5,,5>1[4:1],,,,1<5[4:1],,,,5-1[8:1],,,,1,,2,,3-7[8:1],,,,3b/4-8[8:1],,,,
3-7[8:1]/4b,,,,3b/4-8[8:1],,,,4b/3-7[8:1],,,,3b/4-8[8:1],,,,4b/3-7[8:1],,,,
3b/4>5[8:3],,,,,,,,,,4h[8:3],,,,,,,,,,,,5/6h[8:3],,,,,,4,5,3,4,2h[8:6],,,,,,
5h[8:3],,,,,,,,,,,,1h[8:3]/6h[8:3],,,,,,,,,,,,1/2,,,,4h[8:3]/7h[8:3],,,,,,,,,,
,,3h[8:3]/6,,,,,,5,4,6,5,7p3[8:1],,,,,,1-5[8:1],,4,,1,,6-8[8:1],,4,,6,,3-8[8:1],,1,,
3,,5<1[8:1],,1,2,3,4,5h[8:3],,,,,,,,6/5,,5/6,,7h[8:3]/4,,,,,,5,6,4,5,3,4,2,,1,,
8h[8:3]/3-7[4:1],,,,,,,,,,,,5h[8:3]/3-7[4:1],,,,,,,,,,,,6/4,,7/5,,
8h[8:3]/6>2[4:1],,,,,,,,,,,,2h[8:3]/6,,,,,,4,3,5,4,6,5,7,,8,,
1<6[8:1]/6,,2,,3/1,,2>5[8:1],,1,,8/2,,1<6[8:1],,2,,3/1,,
{24}4,3,2,1,8,7,6,5,4,{16}3,,,7,8,,1-3[8:1]/6,,,,1/6-8[8:1],,,,1-3[8:1]/6,,,,
6/1,,8,,,2,1,,3/8-6[8:1],,,,3-1[8:1]/8,,,,3/4,,5,,6,,
7<4[8:1],,8,,1,,2<7[8:1],,3,,4,,5>2[8:1],,6,,7,,8,,
1,2,8,1,7,8,7,5,6,4,5,3,4,2,5h[4:1],,,,{24}4,3,2,{16}1/5,,2/6,,3/7,,
4/8,,6,5,7,,3,4,2,5,4,6,5,7,{24}1,2,3,4,5,6,7,8,1,2,3,4,5,6,7,8,1,2,
{16}3h[8:3],4,5,6,7,8,1,2,3,4,3,4,,6,5,6,{12}2,4,3,7,5,6,1,3,2,
{16}8,,7-3[8:1]/1,,6,,8-4[8:1]/7b,,1,,7-3[8:1]/8b,,6,,8-4[8:1]/7b,,1,,
7-3[8:1]/8b,,6,,8-4[8:1]/7b,,1,,7-3[8:1]/8b,,6,,7b/8,,
1>8[8:6]*p8[8:6],,,,,,,,,,,,,,,,,,,,4,5,3,6,2,7,1,8,
2b-6[8:1],,6<1[8:1],,2,,5,,4-8[8:1],,2,2,4,,{24}1,2,3,
{16}4-1[8:1],,5,,6,,7,,{24}8>3[16:1],7,6,{16}5,8-4[16:1],,,8,,
1,,2/5,,3/6,,4/7,,{24}5-8[16:1],4,3,{16}2,5,,,2,1,3,,4/3,,6/5,,
7,8,6,,6/5,,3/4,,1,,7b-3[8:1],,3>8[8:1],,7,,4,,5-1[8:1],,7,7,5,,{24}8,7,6,
{16}5-8[8:1],,4,,3,,2,,{24}1<6[16:1],2,3,{16}4,1-5[16:1],,,1,,
8,,7/3,,2/6,,1/5,,{24}4-1[16:1],5,6,{16}7,4,,,6b,,
{16}
7,8,7,8,6,8,5,8,{24}4,3,2,1,8,7,6,5,4,3,2,1,{16}8-4[8:1],,4<7[8:1],,8,,1,,
3-1[8:1],,
8,8,3,,{24}7,6,5,{16}4-8[8:1],,1,,2,,3,,7h[8:1]/4h[8:1],,,2h[8:1]/5h[8:1],,,
3/7,,3-8[8:1]/7,,5,,3,,7,,{24}1-5[16:1],2,3,{16}4,1,,,3,4,2,,1/2,,7/8,,6,5,7,,
1/8,,2b/7b,,,,1-5[8:1],,5>2[8:1],,1,,7,,6-8[8:1],,1,1,6,,{24}2,3,4,
{16}5-1[8:1],,8,,7,,6,,6h[8:1]/8h[8:1],,,3h[8:1]/5h[8:1],,,2/8,,
2>5[8:1]/8,,1<6[8:1],,2,,1,,
5,4,3,2,4,3,2,1,5,4,3,2,4,3,2,1,{24}5,4,3,2,1,8,7,6,5,4,3,2,
{16}1-5[8:1],,8,,1>3[16:1],,7,7,1-5[8:1],,6,,
1>3[16:1],,8,,1-5[8:1],,7,,1>3[16:1],,6,6,1-5[8:1],,7,,
1/8<6[8:1],,,,8-4[8:1],,1,,8<6[16:1],,2,2,8-4[8:1],,3,,8<6[16:1],,1,,
8-4[8:1],,2,,8<6[16:1],,3,3,
8w4[8:1],,,,8b,,,,2/6,,7,1,7,,7,3,7,,7,5,7,,4,6,4,,4,8,4,,4,2,4,,4,5,
6/3-1[8:1],,,,3/5-7[8:1],,6,,5/4-8[8:1],,3,,5-1[8:1]/4,,6,,2/5,,3,,
{12}7,5,6,2,4,3,{24}8,7,6,5,4,3,2,1,84,73,62,51,4-8[4:5]/8b,,,,,,,,,,,,,,,,,,,,,
,,,,,,,,,,,,,,,,,,,,,,,,,,,2h[16:3]/6h[16:3],,,,,,,,,3/5,,,,,,3/5,,,,,,3/5,,,
6h[16:3]/4h[16:3],,,,,,,,,4/6,,,,,,4/6,,,,,,4/6,,,7h[16:3]/5-1[2:1],,,,,,
,,,6,,,,,,6,,,,,,6,,,2h[16:3]/4-8[2:1],,,,,,,,,2,,,,,,2,,,,,,2,,,
7h[16:3]/4>8[2:1],,,,,,,,,7,,,,,,6,,,,,,5,,,5h[16:3]/1h[16:3],,,,,,,,,
{16}5/6-8[8:1],,,,5-1[8:1]/6,,,,5/6,,8h[16:3],,,,,,4/3-1[8:1],,,,3/4-7[8:1],,,,3/4,,
1h[16:3],,,,,,4/5-8[8:1],,,,6/5-1[8:1],,,,4/5-2[8:1],,,,6/5-8[8:1],,,,
4/5-1[8:1],,,,6/5-2[8:1],,,,4/5-8[8:1],,,,6/5w1[8:1],,,,5<4[2:1],,,,,,,,,,
5h[1:1],,,,,,,,,,,,,,,,
(160){16}4,,,,,,4,,4,5,4,5,4,{12}5,3,,2,,{32},1,,,,,,,,,7/8>6[4:11],,,
