&title=キスキツネ
&artist=HIMEHINA
&first=0.03
&des=tqbpvp
&lv_5=13+
&inote_5=(148)
{4},,,1xv8<6b[8:5]`8xv1>3[8:5],,,,A5/D5/A4/E5,
{8}6,6,3,3,8<5[8:2],,2,,1>4[8:2],,7,,8-5[8:1],,3q1[4:3]*pp3[4:3],,,,,,,,,,
{16}2,8,3,7,
{8}2-5b[8:1],1-6<8-4b[8:3],2,,,,
{8}1,6,2-4[8:1]/7-3[8:1],18,2x<4[4:1]/7x,,2x/6x,,{16}8x,7x,6x,5x,4x/1xh[8:1],,{8},1-5[8:1],5,1,,
8h[8:1],,2h[8:1],,6h[8:1],,4h[8:1],,
{16}5-7[8:1],4-2[8:1],5,4,5,,,,
{8},34,26,,
1h[8:1],3,8h[8:1],6,5h[8:1],7,4qq2[8:1]/6,,4pp6[8:1],,4,,2v3[8:1]/8v7[8:1],,,,
8h[8:1],,2h[8:1]/1,,6h[8:1],,4h[8:1]/5,,
{16}6,5,7,2,4V27[4:1]*V63[4:1],,3,,,,,,,,1x,2x,
{4}3xh[4:3],2-4[8:1],2-8[8:1],2-6[8:1],
{8}27,8xv1[8:1]*v5[8:1],,,,,
26,4,37,5,71,B5/B3,71,,
73,5,62,4,28,B4/B6,7/1-5[8:1],,
6<3[4:1],6,3,,4q5[4:1],,4,,7V53[6:1],,{8}3,8xV25[6:1],,4,7x,,
8,8,75,6,24,3,85,6,14,3,
{16}7xh[8:1]/E6/A5,,,6xh[8:1]/E8/A8,,,7xh[8:1]/E4/A4,,,6xh[8:1]/E2/A1,,,
{8}37,15,8/4-2<7-1s5[8:6],,,,6xh[4:1],,,,7,,8-6[12:1]/4-2[12:1],,,,C,,
7<3pp4-8>1[4:3],,,,2xh[4:1],,,,3h[4:1],,,,8h[4:1]/4h[4:1],,,,
{8}6h[4:1]/1,,5,5,3h[4:1]/8,,4,4,6h[4:1]/8,,5,5,
{16}3x/2x,,,4x/5x,,,7x/6x,,7x-2[8:1]/6x,,,7x/2xpp2[16:5]*qq2[16:5],,,,,,,,,,,,,
{8}E8,B7,B6,E6,Ch[64:31],,E1,,E3h[64:48]/E7h[64:48],,,,,,D2h[64:16]/D8h[64:16]/A8h[64:16]/A1h[64:16],,
{4}E1/E3/E5/E7/B1/B2/B3/B4/B5/B6/B7/B8/Cf,,4-1[8:1]/5-8[8:1],,
{8}7>2[8:1]/2,,7/3>4[4:1],,38,,7,6,5/1h[4:1],,
A6/A5/D6f/B5/B6,7,B3/B4/A3/A4/D4f/8-2v7-1[4:1],2,8,,,,
A3/A4/D4f/B4/B3/8,2,B5/B6/A6/A5/D6f/1-7v2-8b[4:1],7,1,,,,
{32}4x,3x,2x,1x,8x,7x,6x,5x,
{8}4x/8x,26,1/7-3[8:1],,
{8}7,1>4[8:1],1,{16}5>2[8:1],6,7,,1-5[8:1],8,7-4[8:1],,1,,7-1[8:1],,
{8}2-5[8:1],7qq1b[4:1],2,7,,2,2h[8:3],,,6,5,E5h[4:4],,1x,Chf[8:5],,,,,D1/E1/A1/A8/D2/E2/D8/E8,,,,
{8}3h[4:1]/5,7,6h[4:1],2,5h[4:1],8,4h[4:1],1,3h[4:1],1,6h[8:1],8,
E3h[4:1]/E7h[4:1]/E2/E8,,E2/E8,,
{16}1,8,3,6,2,7,4,5,
{8}1>4[8:1],7,5>2[8:1],7,
{16}1,8,7,6,{8}5,5,1>2-4[8:1]/5<6-8[8:1],,15,,
56,28,34,17,8v6[8:1]/4v2[8:1],,84,,
E7/B7,B3/E3,45,45,E7h[4:1]/E8/E3h[8:2]/E2,,E2/E8,,
2x-6[8:1],7,5-1[8:1],,
{8}8-4[8:1],2,3-7[8:1],,6-2[8:1],8,1-5[8:1],,1<6[8:1]*>3[8:1],,,,
5,4,7,7,1v6[6:1],,1,,8v3[6:1],,8,,2-6[8:1],,2/5pp7-5-3>2v5b[4:4]*qq3-5-7>8v5b[4:4],,,,,,,,,,,,,,
8b-4b[8:1],2b-6b[8:1],8b,2b,
{32}8bx,1x,2x,3x,8bx,1x,2x,3x,8bx,1x,2x,3x,8bx,1x,2x,3x,8bx,1x,2x,3x,8bx,1x,2x,3x,8bx,1x,2x,3x,8bx,1x,2x,3x,8bx,1x,2x,3x,8bx,1x,2x,3x,8bx,1x,2x,3x,8bx,1x,2x,3x,8bx,1x,2x,3x,8bx,1x,2x,3x,8xb/Cf,,,,,,,,
{8}12,12,87,87,34,34,{16}6,5,6,5,
{8}7-2[8:1],2p6[8:1],1,1h[16:1],,1,3b/8b,,
{16}2,4,2,2,,7,5,7,8,6,5,7,5h[8:1],,6,6,
{16}3,2,1,8,5,6,7,8,{8}1/C,,D3/A2/A3/E3/A7/D7/A6/E7,,
8h[8:1]/3,5,6h[8:1]/3,5,1h[8:1]/3,5,4h[8:1]/3p1p5[8:5],5,,,,,,,Cf,,
{8}2-6[8:1]/7-5[8:1],,2/7>5[4:1],,73,,2,3,4/8h[4:1],,
D6/B5/B6/E6f,2,D4/B4/B3/E4f/1-7v2-8[4:1],7,1,,,,
D4/B4/B3/E4f/1,7,D6/B5/B6/E6f/8-2v7-1b[4:1],2,8,,,,
{32}5x,6x,7x,8x,1x,2x,3x,4x,
{8}5x/1x,73,8/2-6[8:1],,
{8}2,8-5[8:1],8,{16}4<7[8:1],3,2,,8-4[8:1],1,2-6[8:1],,8,,2-8[8:1],,
{8}7-4[8:1],2pp8b[4:1],7,2,,7,7h[8:3],,,
6,18,2qq2[4:1]/3<2[4:1],,23,,
{16}A2,,,,74,74,,25,,86,,12,,76,,28,
{8}2b-6[8:1]/8b,,2-4[8:1]/8-4[8:1],7,28,,8,1,7/1h[8:2],,
7-4b[8:1],8-3>1-5b[16:7],7,8>1v4[16:3],,,Cf,,
7-4b[8:1],8-3>1-5b[16:7],7,8>1v4[16:3],,,Cf,,
{32}3x,2x,1x,8x,7x,6x,5x,4x,
{8}3x/7x,15,2-5[8:1]/8,,
{16}2b,,6<1[8:1],,6,,2-6[8:1],3,4,,27,6,5-8[8:1],,2-5[8:1],,5,,2,,
{8}7p6b[4:1],,{32}E6/7x,E5,E4,E3,E2,E1,E8,E7,,,,,,,,,
{8}8x,,28,45,7p5[8:3]/1q3[8:3],,C,,,,,,
16,28,
{64}1bx/7bx,B1/B7,Cf,B3/B5,A3/A5,,,,,,,,,,,,
{16}2,,6,5h[8:1],,7,,7,1-5[8:1],6,3,4,1,,7h[16:1],,7,5,6,8h[8:1],,6,8,6,1v4[8:1],8,2,8,1,,,,
{8}8h[16:1]/7h[16:1],8h[16:1]/7h[16:1],1h[16:1]/2h[16:1],1h[16:1]/2h[16:1],5h[16:1]/6h[16:1],
5h[16:1]/6h[16:1],{16}3,4,3,4,
{8}2-7[8:1],7q3[8:1],8,8h[16:1],,8,1bq6[8:1]/6b,,
{8}8p3[8:1],8h[16:1],2>5[8:1],2,1q6[8:1],1h[16:1],8q5[8:1],,
6v8[8:1],6h[16:1],1-5[8:1],1h[16:1],4pp6[6:1]*qq2[6:1],4,,,
{8}3h[16:1],3h[16:1]/1,6h[16:1],6h[16:1]/8,4h[16:1],4h[16:1]/3,
{16}5,7,5,7,5b-8[8:1],,8p4[8:1],,1s5b[4:1],,1h[16:1],,,,,,7-3[8:1],,,,
1-6[12:1],,2h[16:1],,,3-8[12:1],,3,,5h[16:1],,5x,1/E8h[16:1]/B7h[16:2]/E7h[16:3],2,3,4,
